<?xml version="1.0" standalone="no"?>
<!DOCTYPE svg PUBLIC "-//W3C//DTD SVG 1.1//EN" "http://www.w3.org/Graphics/SVG/1.1/DTD/svg11.dtd" >
<svg xmlns="http://www.w3.org/2000/svg">
<metadata>Generated by IcoMoon</metadata>
<defs>
<font id="icomoon" horiz-adv-x="1024">
<font-face units-per-em="1024" ascent="960" descent="-64" />
<missing-glyph horiz-adv-x="1024" />
<glyph unicode="&#x20;" horiz-adv-x="512" d="" />
<glyph unicode="&#xe900;" glyph-name="cards" d="M883.669 816.906l-321.779 56.739c-36.194 6.382-70.707-17.785-77.086-53.977l-3.046-17.272c46.537-5.733 85.85-39.256 98.227-85.448l19.665-73.392c10.411 4.515 22.217 6.142 34.227 4.023 22.797-4.020 40.286-20.425 46.801-41.070 13.184 17.172 35.226 26.607 58.022 22.587 32.623-5.754 54.409-36.865 48.657-69.49-12.501-70.89-88.572-127.867-124.672-151.304l55.117-205.705c2.957-11.025 4.186-22.11 3.917-32.981l46.37-8.179c36.194-6.383 70.707 17.783 77.086 53.978l92.467 524.401c6.383 36.195-17.783 70.708-53.973 77.090zM531.78 704.030c-7.966 29.73-34.854 49.338-64.235 49.336-5.7 0-11.499-0.738-17.263-2.283l-315.612-84.567c-35.498-9.512-56.565-46-47.053-81.498l137.818-514.349c7.966-29.73 34.851-49.335 64.233-49.335 5.7 0 11.497 0.738 17.263 2.283l315.609 84.57c35.499 9.51 56.567 45.999 47.053 81.498l-137.813 514.347zM286.184 352.444c-5.352 4.71-7.35 12.173-5.070 18.923l48.26 142.895c4.037 11.955 18.94 15.949 28.413 7.616l113.244-99.622c5.35-4.71 7.347-12.173 5.069-18.923l-48.26-142.899c-4.036-11.951-18.939-15.945-28.413-7.612l-113.243 99.622z" />
<glyph unicode="&#xe901;" glyph-name="casino" d="M512.051 630c-100.255 0-181.843-81.64-181.843-182s81.588-181.999 181.843-181.999c100.258 0 181.794 81.638 181.794 181.999s-81.536 182-181.794 182zM512 864c-229.372 0-416-186.628-416-416s186.628-416 416-416c229.423 0 416 186.628 416 416s-186.577 416-416 416zM826.287 264.649l-111.539 66.923c-20.642-35.827-50.441-65.677-86.217-86.37l66.82-111.437c-53.871-31.565-116.48-49.762-183.3-49.762v129.997c-42.172 0-81.745 11.285-115.959 30.942l-64.064-113.101c-56.68 32.346-103.792 79.509-136.188 136.137l113.204 64.115c-19.552 34.214-30.836 73.737-30.836 115.908h-130.156v-1.613c-0.052 0.521-0.052 1.041-0.052 1.613 0 66.402 17.992 128.648 49.14 182.26l113.204-64.168c20.332 34.632 49.244 63.596 83.876 83.876l-62.504 114.036c53.196 30.472 114.714 47.996 180.284 47.996h0.051v-130c43.213 0 83.669-11.856 118.404-32.344l65.259 112.372c55.019-32.292 100.779-78.572 132.446-134.004l-113.101-64.116c19.554-34.214 30.784-73.736 30.784-115.908h130.155c0-33.438-4.523-65.779-12.996-96.512-8.529-30.784-20.907-59.904-36.715-86.839z" />
<glyph unicode="&#xe902;" glyph-name="game-chicken" d="M642.859 618.667c-102.050 0-187.371-79.040-206.473-163.153-5.568 6.366-7.603 14.451-5.581 22.293l44.122 171.424c9.591 37.253-0.614 75.713-27.998 105.519-10.889 11.855-23.913 21.69-38.401 29.248 33.58-13.593 70.17-20.697 107.662-20.697h82.022v50.020h-82.022c-39.514 0-77.751 10.135-110.573 29.312l-54.828 32.033-31.965-41.547 54.83-32.035c5.83-3.407 11.805-6.569 17.887-9.528-17.626 6.586-36.823 10.092-56.636 10.092h-7.752c-23.915 0-43.787-15.373-47.287-35.377l-50.485-47.988h70.139l-79.222-69.035 40.589-35.37 102.074 88.948c1.719-2.188 3.215-4.579 4.443-7.163 6.732-14.164 3.326-29.092-9.115-39.932l-134.391-117.109c-29.268-25.505-47.809-59.302-52.21-95.167s5.524-72.316 27.943-102.63l237.524-269.474h-83.213v-50.018h229.607v50.018h-57.075l-22.882 94.711c-4.57 18.923 0.828 38.383 14.805 53.402 13.982 15.014 34.722 23.625 56.913 23.625 40.414 0 73.293-28.651 73.293-63.868v-54.515h45.21c0 0 159.522 135.057 159.522 295.121 0 101.133-94.417 198.839-210.475 198.839z" />
<glyph unicode="&#xe903;" glyph-name="dial" d="M654.221 654.222c-15.642 0-29.581-5.689-40.674-15.075 42.381-14.222 75.661-47.218 89.6-89.6 9.101 11.093 15.074 25.031 15.074 40.675 0 35.271-28.727 64-64 64zM917.333 641.707l-211.627 211.627c-28.446 28.445-74.526 28.445-102.967 0l-206.224-206.222h151.61c20.48 37.831 60.015 64 106.095 64 66.56 0 120.892-54.329 120.892-120.889 0-46.080-26.172-85.616-64-106.096v-151.612l206.221 206.224c28.446 28.444 28.446 74.524 0 102.969zM469.333 149.333c31.42 0 56.887 25.472 56.887 56.887 0 31.42-25.468 56.892-56.887 56.892s-56.889-25.472-56.889-56.892c0-31.415 25.469-56.887 56.889-56.887zM270.222 348.446c31.419 0 56.889 25.468 56.889 56.887s-25.47 56.887-56.889 56.887c-31.419 0-56.889-25.468-56.889-56.887s25.47-56.887 56.889-56.887zM568.887 590.222h-398.221c-46.933 0-85.333-38.4-85.333-85.335v-398.221c0-46.933 38.4-85.333 85.333-85.333h398.221c46.933 0 85.333 38.4 85.333 85.333v398.221c0 46.935-38.4 85.335-85.333 85.335zM270.222 291.554c-62.862 0-113.777 50.918-113.777 113.779s50.915 113.779 113.777 113.779c62.863 0 113.778-50.918 113.778-113.779s-50.915-113.779-113.778-113.779zM469.333 92.446c-62.862 0-113.778 50.914-113.778 113.775 0 62.865 50.916 113.779 113.778 113.779s113.779-50.914 113.779-113.779c0-62.861-50.918-113.775-113.779-113.775z" />
<glyph unicode="&#xe904;" glyph-name="fishing" d="M934.238 473.212c-14.34 81.646-53.244 152.59-107.358 204.409-70.656-50.061-112.55-133.902-112.55-226.275 0-93.141 44.416-179.917 116.561-229.065 52.028 51.452 89.361 120.892 103.343 200.503l4.433 25.216-4.429 25.212zM840.094 462.272h-49.997v54.537h49.997v-54.537zM433.762 420.983v-0.256h61.077c27.443 0 49.766 24.354 49.766 54.289v0.252h-61.077c-27.443 0-49.766-24.354-49.766-54.285zM210.329 291.614c-68.922 0-124.995-61.163-124.995-136.346v-27.268h301.371l-93.152 163.614h-83.224zM85.333 767.998v-27.27c0-75.181 56.073-136.346 124.995-136.346h83.222l93.152 163.616h-301.369zM664.333 451.345c0 57.092 13.798 113.244 39.893 162.383 20.39 38.384 47.898 71.898 80.474 98.277-51.725 35.616-112.759 55.995-177.399 55.995h-161.741l-177.336-311.479-15.263 29.717c-27.364 53.285-79.147 86.386-135.139 86.386h-32.489v-242.794h35.066c54.096 0 104.993 31.437 132.825 82.035l15.096 27.443 177.239-311.309h161.741c66.517 0 129.212 21.577 181.875 59.127-77.679 60.501-124.843 158.976-124.843 264.218zM594.607 475.017c0-60.006-44.757-108.826-99.767-108.826h-111.077v54.793c0 60.006 44.756 108.826 99.766 108.826h111.078v-54.793z" />
<glyph unicode="&#xe905;" glyph-name="fast-game" d="M322.845 481.967v-243.264l-41.717-51.849-1.647-2.675c-7-11.375-10.68-24.252-10.68-37.355v-50.197h-108.088c-29.847 0-54.045 22.473-54.045 50.197v75.29c0 6.895 3.051 13.483 8.437 18.223 98.908 87.027 167.996 167.676 207.741 241.63zM701.158 481.967c39.744-73.954 108.83-154.603 207.735-241.63 5.389-4.74 8.439-11.328 8.439-18.219v-75.294c0-27.725-24.196-50.197-54.046-50.197h-108.087v50.197c0 13.103-3.682 25.98-10.679 37.355l-1.647 2.679-41.719 51.849 0.004 243.26zM539.025 222.118l108.087-0.098 50.483-62.746c2.334-3.789 3.558-8.081 3.558-12.45v-75.294c0-27.721-24.196-50.197-54.046-50.197h-108.087l0.004 200.785zM484.979 222.118v-200.785h-108.089c-29.847 0-54.045 22.473-54.045 50.197v75.294c0 4.365 1.228 8.657 3.56 12.45l50.483 62.746 108.091 0.098zM609.374 774.274h-194.746c15.145 31.397 34.853 60.438 59.126 87.071 7.701 8.448 19.017 13.322 30.933 13.322h14.626c11.921 0 23.236-4.873 30.942-13.325 24.269-26.632 43.977-55.673 59.119-87.068zM629.094 724.077c12.015-38.796 18.018-80.656 18.018-125.489v-326.276h-270.223v326.276c0 44.833 6.004 86.693 18.020 125.489h234.185zM471.467 623.686h81.071c14.921 0 27.021 11.237 27.021 25.098s-12.1 25.098-27.021 25.098h-81.071c-14.925 0-27.021-11.237-27.021-25.098s12.096-25.098 27.021-25.098z" />
<glyph unicode="&#xe906;" glyph-name="lode" d="M589.205 462.221c18.287 16.934 27.089 36.574 27.089 59.601 0 23.025-10.155 41.988-29.798 57.564-19.639 15.577-44.698 23.704-74.496 23.704s-54.178-8.127-74.496-23.704c-19.642-15.576-29.8-35.217-29.8-58.243s8.804-42.667 26.412-59.597c-25.058-18.965-37.248-44.023-37.248-75.174 0-26.415 10.836-48.764 31.83-66.372 20.996-18.287 48.764-27.089 82.624-27.089 33.865 0 61.632 8.802 82.624 27.089 20.996 18.287 31.834 39.957 31.834 66.372 0.674 31.151-11.516 56.209-36.574 75.849zM483.554 540.783c8.128 6.772 17.609 10.159 28.446 10.159s20.996-3.386 28.446-10.159c8.124-6.772 12.19-15.578 12.19-25.737s-4.066-18.961-12.19-25.732c-8.128-6.775-17.609-10.159-28.446-10.159s-20.318 3.383-28.446 10.159c-8.124 6.771-12.19 15.573-12.19 25.732s4.066 18.964 12.19 25.737zM544.508 358.605c-10.159-6.775-20.996-10.159-32.508-10.159s-22.349 3.383-32.508 10.159c-10.159 6.771-14.899 16.252-14.899 29.12s4.74 23.027 14.899 29.798c9.481 6.771 20.996 10.159 33.186 10.159s23.027-3.388 33.186-10.159c9.481-6.771 14.899-16.93 14.899-29.798s-6.097-22.349-16.256-29.12zM512 874.667c-235.683 0-426.667-190.984-426.667-426.667s190.984-426.667 426.667-426.667c235.682 0 426.667 190.985 426.667 426.667s-190.985 426.667-426.667 426.667zM512 178.453c-148.995 0-269.545 120.55-269.545 269.547 0 148.995 120.55 269.545 269.545 269.545s269.547-120.55 269.547-269.545c0-148.996-120.55-269.547-269.547-269.547z" />
<glyph unicode="&#xe907;" glyph-name="nohu" d="M650.795 661.815l64.017 137.78-101.009 75.071-101.709-53.964-101.751 53.963-101.007-75.069 64.014-137.78h277.445zM851.831 284.838c-5.649 51.401-26.739 102.199-62.686 150.98l-127.219 172.672h-114.475l26.091-79.786-47.569-17.455-13.884 42.467-19.465-59.482-47.565 17.463 31.671 96.793h-114.659l-127.039-171.639c-35.997-48.653-57.14-99.349-62.839-150.686-4.991-44.954 2.305-90.338 21.103-131.243 35.308-76.834 108.785-132.604 174.632-132.604l288.208-0.986c65.805 0 139.174 55.59 174.46 132.181 18.842 40.896 26.185 86.31 21.235 131.324zM517.193 310.524c16.465-3.674 35.132-7.834 50.543-18.598 20.139-14.067 30.349-35.772 30.349-64.516 0-37.623-25.685-69.517-60.907-80.004v-38.763h-50.342v38.763c-35.221 10.487-60.907 42.381-60.907 80.004h50.342c0-16.73 16.030-30.34 35.738-30.34 19.703 0 35.738 13.611 35.738 30.34 0 18.957-5.355 23.002-40.926 30.933-16.465 3.674-35.132 7.834-50.543 18.598-20.139 14.063-30.349 35.772-30.349 64.516 0 37.623 25.685 69.517 60.907 80.004v38.758h50.342v-38.758c35.221-10.487 60.907-42.381 60.907-80.004h-50.338c0 16.73-16.034 30.336-35.738 30.336-19.708 0-35.738-13.606-35.738-30.336 0-18.957 5.35-23.002 40.922-30.933z" />
<glyph unicode="&#xe908;" glyph-name="noi-bat" d="M835.746 245.709c-5.184-14.878-12.962-29.751-20.736-43.388-3.887-7.437-9.071-13.636-11.665-22.315-2.59-7.437-11.665-12.395-16.849-19.836-12.958-19.831-29.807-37.188-47.949-53.303-9.071-7.437-18.142-14.874-28.51-22.31-24.627-18.598-51.84-30.993-81.647-42.15-40.175-14.874-82.944-21.073-127.006-21.073-38.882 0-75.168 11.157-110.159 22.315-24.624 7.437-47.951 19.831-67.391 33.468-29.807 21.073-55.727 47.108-77.759 75.618-28.512 37.188-51.839 76.86-63.503 121.485-9.072 33.472-12.96 65.702-11.663 99.17-2.592 78.097 22.031 147.516 68.687 208.259 7.776 9.917 15.552 18.594 25.92 26.032 5.184 3.719 11.664 6.198 18.144 2.479s6.48-9.917 3.888-16.115c-5.184-14.876-10.368-29.751-11.664-45.867-3.888-50.825 14.256-94.213 57.023-125.202 9.072-7.437 20.736-12.399 33.695-13.636 27.216-3.721 49.247 11.157 57.023 39.667 6.481 23.552 6.481 47.108 0 70.66-5.184 19.833-11.664 39.668-18.144 59.502-16.848 53.304-16.848 106.609 2.592 159.913 6.48 19.834 16.847 37.189 29.806 53.304 20.736 28.512 45.359 53.304 73.873 74.378 5.184 3.719 10.368 6.198 15.552 7.438s10.368 0 14.255-3.719c3.887-3.719 5.184-8.677 2.59-13.636-2.59-4.959-5.184-9.917-7.774-14.876-25.92-45.866-23.33-92.972-2.594-140.079 11.665-28.512 29.807-53.304 47.953-78.097 7.774-11.156 15.552-22.313 22.033-34.71 1.293-2.479 2.59-4.958 5.184-7.438 11.661-13.636 24.623-12.396 31.1 4.958 9.075 23.553 7.778 48.346-1.293 71.899-3.891 9.917-7.778 21.074-12.962 30.991-2.59 6.198-2.59 12.396 2.594 17.355s10.368 1.239 15.552-1.24c12.958-6.198 23.326-13.636 31.104-23.553 31.1-35.95 51.836-75.618 58.317-122.724 6.481-49.583-1.297-96.692-32.401-138.838-6.477-8.678-12.958-16.115-20.732-22.315-5.184-3.721-5.184-8.678-1.297-13.636 7.774-7.437 16.845-11.157 28.51-8.678 47.953 8.678 81.647 47.108 82.944 94.212 0 8.678 0 18.594 0 27.273 0 6.199 0 12.399 7.774 14.878 6.481 2.479 12.962-1.242 16.849-6.199 6.481-7.437 11.665-16.115 15.552-24.794 12.958-30.989 20.736-63.219 22.029-96.691 2.594-45.867-1.293-92.971-16.845-138.837z" />
<glyph unicode="&#xe909;" glyph-name="p2p" d="M818.176 56.858v82.189c0 8.329-6.75 15.078-15.078 15.078h-276.049v88.93c14.502 6.605 29.107 13.743 43.729 21.38h232.32c8.329 0 15.078 6.75 15.078 15.083v82.18l120.491-152.448-120.491-152.393zM514.359 310.306l26.112 15.091 18.982-32.862c10.697 5.632 21.406 11.507 32.090 17.677 10.692 6.174 21.163 12.51 31.394 18.961l-19.025 32.896 26.108 15.095 18.193-31.454c21.094 14.319 40.917 29.12 59.123 44.147l-20.228 35.11 26.129 15.057 17.327-30.076c16.751 15.202 31.744 30.511 44.625 45.653 2.799 3.294 5.461 6.549 8.013 9.775l-21.248 36.804 26.116 15.078 14.229-24.644c17.395 28.719 22.686 52.845 14.050 67.802l-14.946 25.892c-3.878 6.71-7.748 13.43-11.627 20.144-7.846-22.902-23.42-48.384-46.434-75.45-44.587-52.429-112.61-106.402-191.539-151.974-78.942-45.547-159.686-77.457-227.37-89.856-20.066-3.674-38.46-5.495-54.982-5.495-12.27 0-23.468 1.041-33.594 3.025 8.866-15.36 17.716-30.72 26.604-46.097 8.638-14.95 32.166-22.434 65.716-21.73l-14.236 24.649 26.116 15.087 21.26-36.817c4.086 0.602 8.254 1.28 12.522 2.061 19.544 3.584 40.29 8.926 61.812 15.825l-17.376 30.020 26.102 15.108 20.297-35.072c22.127 8.26 44.868 18.048 67.827 29.163l-18.142 31.407zM339.632 376.828c48.482 14.434 108.569 41.655 169.194 76.663 60.621 34.999 114.244 73.429 150.997 108.209 40.798 38.61 43.857 56.988 42.428 59.468-0.704 1.216-5.316 3.43-16.286 3.43-11.243 0-29.167-2.326-56.414-10.438-48.482-14.432-108.565-41.656-169.195-76.66-60.651-35.002-114.29-73.436-151.040-108.214-40.79-38.601-43.828-56.969-42.394-59.447 1.436-2.483 18.876-9.041 72.71 6.989zM268.652 313.719c-31.152 0-52.698 7.484-61.002 21.867-12.152 21.039 3.236 60.22 41.16 104.811 42.414 49.869 107.634 101.503 183.651 145.391 75.985 43.886 153.297 74.556 217.698 86.36 18.436 3.38 35.23 5.034 49.95 5.034 31.266 0 53.163-7.47 61.414-21.766 24.61-42.764-61.623-156.067-224.794-250.275-108.228-62.443-206.768-91.426-268.078-91.422zM283.36 336.158c16.972 0 38.54 3.925 64.876 11.767 50.676 15.083 113.063 43.298 175.668 79.445s118.238 76.070 156.646 112.423c45.022 42.608 60.668 74.15 47.817 96.448-12.881 22.272-48.017 24.502-107.418 6.82-50.679-15.086-113.062-43.3-175.671-79.448-62.632-36.147-118.278-76.075-156.692-112.427-45.032-42.611-60.658-74.163-47.772-96.448 7.172-12.395 21.234-18.581 42.546-18.581zM205.822 616.488c0 8.328 6.75 15.080 15.080 15.080h232.32c14.605 7.626 29.188 14.756 43.669 21.354v88.954h-275.99c-8.328 0-15.080 6.75-15.080 15.080v82.186l-120.489-152.394 120.489-152.442v82.182z" />
<glyph unicode="&#xe90a;" glyph-name="slots" d="M132.306 122.842v-22.528c0.004-9.63 4.13-18.863 11.47-25.673s17.294-10.637 27.674-10.641h532.354c10.381 0.004 20.335 3.831 27.674 10.641s11.465 16.043 11.469 25.673v22.528c12.992 1.766 24.87 7.791 33.485 16.981 8.614 9.186 13.402 20.937 13.491 33.114v195.179h54.801c14.528 0.013 28.454 5.376 38.729 14.908 10.274 9.527 16.055 22.451 16.073 35.925v149.559c13.474 5.056 24.631 14.302 31.561 26.153 6.933 11.851 9.203 25.57 6.43 38.804-2.778 13.235-10.428 25.161-21.645 33.737s-25.297 13.265-39.834 13.265c-14.532 0-28.617-4.689-39.834-13.265-11.213-8.575-18.867-20.502-21.645-33.737-2.773-13.235-0.503-26.953 6.43-38.804 6.929-11.851 18.091-21.097 31.561-26.153v-149.559c0-1.924-0.828-3.767-2.295-5.129s-3.456-2.129-5.53-2.133h-54.801v253.278c-0.073 13.463-5.867 26.356-16.128 35.876-10.266 9.52-24.162 14.896-38.673 14.961h-26.095l-13.739 38.234c-2.078 5.785-6.067 10.816-11.401 14.381-5.329 3.566-11.738 5.484-18.308 5.485h-41.314l-22.387 41.94c-2.59 4.852-6.588 8.936-11.55 11.791-4.958 2.855-10.679 4.368-16.516 4.368h-272.369c-5.836 0-11.557-1.513-16.516-4.369s-8.959-6.939-11.55-11.791l-22.386-41.94h-47.262c-6.984 0-13.768-2.165-19.273-6.152s-9.415-9.567-11.109-15.852l-9.725-36.096h-23.486c-14.513-0.065-28.411-5.441-38.673-14.961s-16.058-22.413-16.128-35.876v-492.028c0.088-12.177 4.873-23.927 13.489-33.114 8.616-9.19 20.494-15.215 33.484-16.981zM719.462 277.333h-234.863v277.333h234.863v-277.333zM155.792 554.667h234.862v-277.333h-234.862v277.333zM346.335 450.935h-32.791c-2.54 0-5.024 0.691-7.145 1.988s-3.783 3.145-4.782 5.312l-15.849 34.317c-1 2.167-2.663 4.015-4.784 5.312s-4.606 1.993-7.147 1.993c-2.541 0-5.026-0.695-7.147-1.993s-3.784-3.145-4.784-5.312l-15.849-34.317c-1-2.167-2.664-4.015-4.786-5.312s-4.607-1.988-7.148-1.988h-32.782c-2.568 0-5.077-0.708-7.212-2.031s-3.799-3.204-4.781-5.406c-0.983-2.202-1.24-4.621-0.739-6.959 0.5-2.334 1.736-4.484 3.551-6.165l24.564-22.801c1.585-1.468 2.732-3.294 3.331-5.299s0.628-4.117 0.086-6.135l-11.613-43.089c-0.617-2.291-0.495-4.698 0.351-6.925 0.846-2.223 2.377-4.169 4.405-5.594s4.462-2.27 7.001-2.419c2.539-0.154 5.070 0.388 7.279 1.557l39.833 21.124c1.96 1.041 4.179 1.587 6.437 1.587s4.477-0.546 6.438-1.587l39.839-21.124c2.209-1.173 4.74-1.715 7.279-1.562s4.973 0.994 7 2.419c2.028 1.425 3.558 3.375 4.403 5.598 0.844 2.227 0.965 4.634 0.347 6.925l-11.605 43.089c-0.542 2.014-0.513 4.13 0.084 6.131 0.597 2.005 1.743 3.831 3.325 5.303l24.572 22.797c1.816 1.685 3.052 3.831 3.552 6.17s0.244 4.757-0.739 6.959c-0.983 2.202-2.647 4.083-4.782 5.406s-4.646 2.031-7.214 2.031zM544.307 407.573c1.587-1.472 2.731-3.298 3.328-5.299 0.597-2.005 0.627-4.117 0.085-6.135l-11.61-43.089c-0.614-2.291-0.495-4.698 0.35-6.921 0.845-2.227 2.377-4.173 4.403-5.602 2.027-1.425 4.459-2.266 6.997-2.419 2.539-0.149 5.073 0.393 7.279 1.562l39.842 21.124c1.958 1.041 4.177 1.587 6.438 1.587 2.257 0 4.476-0.546 6.434-1.587l39.834-21.124c2.21-1.169 4.74-1.715 7.279-1.562s4.975 0.994 7.002 2.419c2.027 1.425 3.558 3.371 4.407 5.598 0.845 2.227 0.964 4.634 0.35 6.925l-11.605 43.089c-0.546 2.014-0.521 4.13 0.077 6.135 0.597 2.001 1.745 3.827 3.332 5.299l24.563 22.797c1.818 1.685 3.051 3.831 3.55 6.17 0.503 2.334 0.243 4.757-0.738 6.959-0.981 2.197-2.645 4.079-4.779 5.406-2.138 1.323-4.646 2.031-7.215 2.031h-32.781c-2.543 0-5.030 0.691-7.151 1.988s-3.785 3.14-4.787 5.308l-15.846 34.321c-0.998 2.167-2.662 4.011-4.783 5.312-2.121 1.297-4.604 1.988-7.142 1.988-2.543 0-5.026-0.691-7.147-1.988-2.121-1.301-3.785-3.145-4.783-5.312l-15.855-34.321c-0.998-2.163-2.662-4.011-4.783-5.308s-4.604-1.988-7.142-1.988h-32.794c-2.564-0.004-5.077-0.708-7.211-2.035-2.133-1.323-3.797-3.204-4.779-5.406s-1.237-4.621-0.738-6.959c0.503-2.334 1.737-4.48 3.554-6.165l24.563-22.797z" />
<glyph unicode="&#xe90b;" glyph-name="sports" d="M307.923 651.389c5.092 6.087 10.458 11.975 16.122 17.637 24.395 24.395 52.817 43.555 84.475 56.945 32.803 13.875 67.619 20.908 103.48 20.908s70.677-7.035 103.479-20.908c31.659-13.39 60.083-32.55 84.476-56.945 5.662-5.661 11.029-11.55 16.124-17.637h114.598v82.665c0 6.632-2.633 12.988-7.322 17.677l-115.614 115.612c-4.685 4.688-11.046 7.323-17.677 7.323h-356.13c-6.632 0-12.99-2.635-17.677-7.323l-115.613-115.612c-4.688-4.689-7.323-11.047-7.323-17.677v-82.665h114.601zM716.527 311.279c-5.222-6.276-10.743-12.339-16.572-18.163-24.393-24.397-52.817-43.558-84.476-56.947-32.802-13.875-67.618-20.907-103.479-20.907-35.866 0-70.677 7.031-103.48 20.907-31.658 13.389-60.080 32.55-84.475 56.947-5.828 5.828-11.346 11.891-16.57 18.163h-103.638c7.205-27.823 18.030-54.703 32.308-79.834 28.017-49.301 68.573-90.705 117.288-119.731l145.771-86.857c3.942-2.351 8.367-3.524 12.796-3.524 4.425 0 8.853 1.173 12.796 3.524l145.771 86.857c48.717 29.026 89.271 70.43 117.291 119.735 14.276 25.126 25.101 52.011 32.307 79.834l-103.637-0.004zM884.757 481.335l50.227 81.996c4.727 7.715 4.915 17.382 0.495 25.277-4.425 7.895-12.766 12.782-21.811 12.782h-164.595c2.795-5.505 5.41-11.117 7.829-16.84 13.875-32.803 20.911-67.617 20.911-103.479s-7.036-70.682-20.911-103.484c-2.342-5.538-4.873-10.97-7.565-16.307h164.331c9.045 0 17.387 4.89 21.811 12.783 4.42 7.893 4.233 17.562-0.495 25.276l-50.227 81.997zM274.665 361.28c-2.693 5.338-5.223 10.769-7.565 16.307-13.875 32.806-20.91 67.622-20.91 103.484s7.035 70.677 20.91 103.479c2.42 5.722 5.035 11.333 7.828 16.84h-164.594c-9.048 0-17.39-4.888-21.812-12.782s-4.233-17.56 0.493-25.277l50.226-81.996-50.226-81.997c-4.727-7.714-4.915-17.382-0.493-25.276 4.422-7.898 12.763-12.783 21.812-12.783h164.331zM537.003 597.938l78.255-56.855 92.915 30.031c-30.81 67.012-94.938 115.522-171.174 124.317l0.004-97.493zM617.459 292.753l-57.173 79.424h-96.567l-57.174-79.424c31.185-17.502 67.153-27.494 105.455-27.494 38.306 0 74.27 9.993 105.459 27.494zM366.060 322.099l57.158 79.407-29.876 91.947-93.056 29.606c-2.678-13.585-4.097-27.618-4.097-41.988 0.002-62.912 26.927-119.526 69.872-158.972zM727.808 481.071c0 14.545-1.446 28.749-4.19 42.487l-92.937-30.037-29.901-92.019 57.156-79.403c42.948 39.445 69.871 96.060 69.871 158.972zM315.612 570.653l93.073-29.613 78.317 56.899v97.493c-76.408-8.817-140.662-57.527-171.39-124.779zM512 554.298l-69.457-50.464 26.53-81.651h85.854l26.534 81.651-69.461 50.464z" />
<glyph unicode="&#xe90c;" glyph-name="table-games" d="M413.099 296.393l-42.257-70.835-49.783 27.819 42.257 70.835 49.783-27.819zM540.74 278.187v-81.805h-57.463v81.805h57.463zM660.685 324.211l42.257-70.835-49.783-27.819-42.257 70.835 49.783 27.819zM740.796 422.101l73.182-40.9-28.74-48.171-73.182 40.9 28.74 48.171zM601.788 553.399v-70.271h-179.593v70.271h179.593zM283.204 422.101l28.74-48.171-73.182-40.9-28.74 48.171 73.182 40.9zM336.179 475.132l57.242-86.81 74.769-37.747h87.62l74.769 37.777 57.242 86.793 37.444-23.057-63.659-96.508-94.908-47.957h-109.397l-94.925 47.923-63.642 96.525 37.444 23.061zM938.667 789.333h-240.913v-65.758h-371.49v65.758h-240.93v-380.262l114.33-191.642 198.229-110.763h228.301l198.076 110.677 114.398 191.727v380.262z" />
<glyph unicode="&#xe90d;" glyph-name="about-us" d="M381.981 471.091c32.152 0 63.583 9.86 90.318 28.331 26.731 18.475 47.569 44.73 59.87 75.448 12.305 30.719 15.522 64.521 9.246 97.13s-21.76 62.563-44.497 86.071c-22.737 23.509-51.703 39.517-83.241 46-31.535 6.483-64.221 3.15-93.925-9.578s-55.090-34.279-72.949-61.927c-17.859-27.648-27.388-60.152-27.382-93.402 0.045-44.567 17.187-87.294 47.664-118.806 30.477-31.509 71.799-49.229 114.896-49.267zM594.633 332.224c-41.195 43.695-94.046 73.698-151.808 86.178s-117.809 6.869-172.474-16.111c-54.665-22.98-101.463-62.289-134.419-112.909-32.955-50.615-50.572-110.246-50.598-171.268 0-7.799 2.997-15.279 8.331-20.796s12.57-8.619 20.113-8.619h536.462c7.543 0 14.78 3.102 20.113 8.619s8.333 12.996 8.333 20.796c0.107 31.194-4.548 62.204-13.798 91.891-13.773 45.901-37.845 87.778-70.255 122.219zM725.333 456.384c66.765 0 120.887 55.97 120.887 125.011 0 69.042-54.123 125.012-120.887 125.012s-120.887-55.97-120.887-125.012c0-69.041 54.123-125.011 120.887-125.011zM725.333 421.969c-38.127-0.149-75.516-10.889-108.258-31.091 6.17-5.709 12.399-11.324 18.231-17.502 38.729-41.169 67.503-91.221 83.968-146.074 5.641-18.057 9.796-36.578 12.429-55.356h178.517c7.543 0 14.78 3.098 20.113 8.614 5.338 5.517 8.333 12.996 8.333 20.8-0.060 58.487-22.554 114.564-62.549 155.925-39.996 41.357-94.225 64.619-150.784 64.683z" />
<glyph unicode="&#xe90e;" glyph-name="all" d="M482.496 756.503c-3.332 39.806-33.493 71.229-71.678 73.883-22.978 1.575-54.519 2.325-97.73 0.495s-74.857-5.264-98.060-8.774c-38.411-5.925-71.212-38.742-77.137-77.138-3.51-23.203-6.854-54.865-8.774-98.061s-1.11-74.738 0.495-97.731c2.67-38.188 34.076-68.349 73.882-71.677 23.997-1.95 56.754-3.332 101.674-3.196s77.767 1.694 101.704 3.853c19.311 1.719 37.402 10.172 51.11 23.881s22.165 31.803 23.881 51.114c2.159 23.923 3.738 56.77 3.857 101.706s-1.276 77.723-3.226 101.646zM886.101 744.969c-5.922 38.397-38.741 71.214-77.137 77.138-23.202 3.51-54.861 6.854-98.057 8.774s-74.739 1.11-97.732-0.495c-38.187-2.655-68.348-34.077-71.676-73.883-1.95-23.998-3.332-56.755-3.196-101.676s1.694-77.768 3.857-101.706c1.715-19.312 10.163-37.405 23.876-51.118 13.709-13.709 31.804-22.161 51.115-23.876 23.996-2.159 56.768-3.733 101.705-3.853 44.932-0.119 77.751 1.246 101.675 3.196 39.791 3.328 71.211 33.506 73.882 71.677 1.604 22.993 2.325 54.52 0.495 97.731s-5.295 74.888-8.806 98.091zM481.835 342.869c-1.715 19.315-10.167 37.406-23.876 51.119-13.709 13.709-31.803 22.161-51.115 23.876-23.997 2.159-56.769 3.733-101.705 3.853s-77.751-1.246-101.674-3.196c-39.761-3.358-71.197-33.519-73.852-71.706-1.575-22.993-2.325-54.519-0.495-97.732s5.264-74.859 8.774-98.061c5.924-38.396 38.741-71.215 77.137-77.137 23.158-3.511 54.819-6.899 98.015-8.777 43.195-1.873 74.737-1.109 97.729 0.495 38.157 2.654 68.348 34.091 71.676 73.886 1.95 23.919 3.332 56.751 3.196 101.675-0.137 44.919-1.651 77.841-3.81 101.705zM894.455 346.816c-2.654 38.157-34.091 68.348-73.882 71.676-23.923 1.95-56.755 3.332-101.675 3.196-44.919-0.132-77.781-1.694-101.705-3.853-19.311-1.715-37.406-10.167-51.115-23.876-13.709-13.713-22.161-31.804-23.876-51.119-2.159-23.996-3.733-56.768-3.853-101.705s1.242-77.756 3.191-101.675c3.332-39.795 33.523-71.232 71.68-73.886 22.993-1.604 54.519-2.325 97.728-0.495 43.213 1.83 74.859 5.265 98.014 8.777 38.455 5.922 71.258 38.741 77.184 77.18 3.507 23.159 6.899 54.822 8.772 98.018 1.877 43.196 1.037 74.769-0.465 97.762z" />
<glyph unicode="&#xe90f;" glyph-name="angles-down-small" d="M524.954 154.441l193.941 179.191c4.113 3.823 6.438 9.156 6.438 14.81v119.462c0 7.846-4.501 14.972-11.482 18.197-7.019 3.187-15.206 1.873-20.868-3.383l-180.983-167.206-180.945 167.206c-5.702 5.257-13.886 6.609-20.868 3.383-7.020-3.226-11.52-10.351-11.52-18.197v-119.462c0-5.653 2.366-10.987 6.4-14.81l193.941-179.191c7.369-6.81 18.615-6.81 25.946 0zM524.954 413.269l193.941 179.192c4.113 3.823 6.438 9.158 6.438 14.813v119.46c0 7.844-4.501 14.972-11.482 18.198-7.019 3.185-15.206 1.871-20.868-3.385l-180.983-167.205-180.945 167.204c-5.702 5.257-13.886 6.61-20.868 3.385-7.021-3.225-11.52-10.353-11.52-18.198v-119.46c0-5.654 2.366-10.99 6.4-14.813l193.941-179.191c7.369-6.81 18.615-6.81 25.946 0z" />
<glyph unicode="&#xe910;" glyph-name="angles-left-small" d="M218.44 460.954l179.191 193.941c3.823 4.111 9.158 6.439 14.813 6.439h119.46c7.846 0 14.972-4.499 18.197-11.481 3.187-7.021 1.873-15.205-3.383-20.868l-167.206-180.984 167.206-180.945c5.257-5.7 6.609-13.888 3.383-20.868-3.226-7.019-10.351-11.52-18.197-11.52h-119.46c-5.655 0-10.991 2.368-14.813 6.4l-179.191 193.941c-6.809 7.369-6.809 18.615 0 25.946zM477.269 460.954l179.191 193.941c3.823 4.111 9.161 6.439 14.814 6.439h119.458c7.846 0 14.972-4.499 18.197-11.481 3.187-7.021 1.873-15.205-3.383-20.868l-167.202-180.984 167.202-180.945c5.257-5.7 6.609-13.888 3.383-20.868-3.226-7.019-10.351-11.52-18.197-11.52h-119.458c-5.653 0-10.991 2.368-14.814 6.4l-179.191 193.941c-6.81 7.369-6.81 18.615 0 25.946z" />
<glyph unicode="&#xe911;" glyph-name="angles-right-small" d="M805.559 460.954l-179.191 193.941c-3.823 4.111-9.156 6.439-14.81 6.439h-119.462c-7.846 0-14.972-4.499-18.197-11.481-3.187-7.021-1.873-15.205 3.383-20.868l167.206-180.984-167.206-180.945c-5.257-5.7-6.609-13.888-3.383-20.868 3.226-7.019 10.351-11.52 18.197-11.52h119.462c5.653 0 10.987 2.368 14.81 6.4l179.191 193.941c6.81 7.369 6.81 18.615 0 25.946zM546.731 460.954l-179.191 193.941c-3.823 4.111-9.159 6.439-14.813 6.439h-119.46c-7.845 0-14.973-4.499-18.198-11.481-3.186-7.021-1.872-15.205 3.384-20.868l167.205-180.984-167.205-180.945c-5.256-5.7-6.61-13.888-3.384-20.868 3.225-7.019 10.353-11.52 18.198-11.52h119.46c5.655 0 10.991 2.368 14.813 6.4l179.191 193.941c6.81 7.369 6.81 18.615 0 25.946z" />
<glyph unicode="&#xe912;" glyph-name="angles-up-small" d="M541.713 741.56l-193.941-179.191c-4.111-3.823-6.439-9.158-6.439-14.813v-119.46c0-7.846 4.499-14.972 11.481-18.197 7.021-3.187 15.205-1.873 20.868 3.383l180.984 167.206 180.945-167.206c5.7-5.257 13.888-6.609 20.868-3.383 7.019 3.226 11.52 10.351 11.52 18.197v119.46c0 5.655-2.368 10.991-6.4 14.813l-193.941 179.191c-7.369 6.809-18.615 6.809-25.946 0zM541.713 482.731l-193.941-179.191c-4.111-3.823-6.439-9.161-6.439-14.814v-119.458c0-7.846 4.5-14.972 11.481-18.197 7.021-3.187 15.205-1.873 20.868 3.383l180.984 167.202 180.945-167.202c5.7-5.257 13.888-6.609 20.868-3.383 7.019 3.226 11.52 10.351 11.52 18.197v119.458c0 5.653-2.368 10.991-6.4 14.814l-193.941 179.191c-7.369 6.81-18.615 6.81-25.946 0z" />
<glyph unicode="&#xe913;" glyph-name="arrow-down" d="M484.105 117.577l-259.307 246.537c-7.402 7.036-11.465 16.418-11.465 26.419 0 10.010 4.069 19.388 11.465 26.423l23.549 22.383c7.39 7.031 17.261 10.906 27.786 10.906 10.519 0 20.723-3.874 28.113-10.906l151.605-143.825v456.94c0 20.602 16.964 36.88 38.639 36.88h33.289c21.675 0 40.35-16.279 40.35-36.88v-458.569l152.448 145.451c7.403 7.031 17.007 10.906 27.533 10.906 10.513 0 20.254-3.874 27.648-10.906l23.475-22.383c7.403-7.040 11.435-16.414 11.435-26.423 0-10.005-4.087-19.383-11.486-26.419l-259.302-246.537c-7.424-7.053-17.335-10.931-27.874-10.906-10.569-0.021-20.489 3.853-27.9 10.91z" />
<glyph unicode="&#xe914;" glyph-name="arrow-down-square" d="M170.667 832h682.667c23.565 0 42.667-19.102 42.667-42.667v-682.667c0-23.565-19.102-42.667-42.667-42.667h-682.667c-23.564 0-42.667 19.102-42.667 42.667v682.667c0 23.564 19.102 42.667 42.667 42.667zM306.856 385.084l185.219-184.9c5.295-5.295 12.378-8.201 19.93-8.183 7.526-0.021 14.605 2.889 19.908 8.179l185.216 184.9c5.286 5.278 8.205 12.314 8.205 19.814 0 7.509-2.88 14.541-8.166 19.819l-16.768 16.789c-5.282 5.274-12.241 8.179-19.75 8.179-7.518 0-14.379-2.906-19.665-8.179l-108.894-109.090v343.928c0 15.451-13.338 27.66-28.821 27.66h-23.778c-15.479 0-27.597-12.209-27.597-27.66v-342.704l-108.289 107.87c-5.279 5.274-12.567 8.179-20.081 8.179-7.518 0-14.569-2.906-19.848-8.179l-16.82-16.789c-5.283-5.278-8.189-12.309-8.189-19.819 0-7.501 2.902-14.537 8.189-19.814z" />
<glyph unicode="&#xe915;" glyph-name="arrow-export" d="M322.371 106.667h379.257c40.235 0 78.822 15.983 107.273 44.433s44.433 67.038 44.433 107.273v379.257c0 40.236-15.983 78.822-44.433 107.27-28.45 28.452-67.038 44.434-107.273 44.434h-379.257c-40.236 0-78.822-15.982-107.27-44.434-28.452-28.448-44.434-67.034-44.434-107.27v-379.257c0-40.235 15.982-78.822 44.434-107.273 28.448-28.45 67.034-44.433 107.27-44.433zM425.529 401.732l219.591 219.589h-92.16c-7.543 0-14.78 2.996-20.113 8.332-5.333 5.332-8.333 12.569-8.333 20.112s2.999 14.78 8.333 20.112c5.333 5.336 12.57 8.332 20.113 8.332h160.806c3.785-0.288 7.497-1.183 10.999-2.655 6.891-3.008 12.335-8.586 15.168-15.549 1.515-3.471 2.287-7.214 2.278-10.999v-160.047c0-7.543-2.999-14.78-8.333-20.113s-12.57-8.333-20.113-8.333c-7.543 0-14.78 2.999-20.113 8.333s-8.333 12.57-8.333 20.113v92.16l-219.588-219.593c-5.393-5.022-12.527-7.757-19.895-7.629-7.369 0.132-14.4 3.115-19.61 8.329-5.211 5.21-8.196 12.241-8.329 19.61-0.129 7.369 2.606 14.502 7.631 19.895z" />
<glyph unicode="&#xe916;" glyph-name="arrow-import" d="M701.628 789.309h-379.257c-40.235 0-78.821-15.983-107.271-44.433s-44.433-67.036-44.433-107.271v-379.258c0-40.235 15.983-78.822 44.433-107.273s67.036-44.433 107.271-44.433h379.257c40.239 0 78.822 15.983 107.273 44.433s44.433 67.038 44.433 107.273v379.258c0 40.235-15.983 78.821-44.433 107.271s-67.034 44.433-107.273 44.433zM598.473 494.246l-219.593-219.593h92.16c7.543 0 14.78-2.995 20.113-8.333 5.333-5.333 8.333-12.57 8.333-20.113s-2.999-14.78-8.333-20.109c-5.333-5.338-12.57-8.333-20.113-8.333h-160.806c-3.785 0.286-7.499 1.182-10.999 2.654-6.891 3.008-12.335 8.585-15.17 15.548-1.513 3.473-2.287 7.215-2.276 10.999v160.047c0 7.543 2.997 14.78 8.332 20.113 5.334 5.338 12.569 8.333 20.113 8.333s14.779-2.995 20.113-8.333c5.334-5.333 8.331-12.57 8.331-20.113v-92.16l219.589 219.592c5.393 5.024 12.527 7.759 19.895 7.63s14.4-3.116 19.61-8.327c5.21-5.212 8.196-12.243 8.329-19.612 0.128-7.369-2.607-14.498-7.629-19.891z" />
<glyph unicode="&#xe917;" glyph-name="arrow-left" d="M181.578 475.895l246.535 259.307c7.036 7.402 16.418 11.465 26.419 11.465 10.010 0 19.388-4.069 26.423-11.465l22.383-23.549c7.031-7.39 10.906-17.261 10.906-27.786 0-10.519-3.874-20.723-10.906-28.113l-143.825-151.605h456.938c20.604 0 36.881-16.964 36.881-38.639v-33.289c0-21.675-16.277-40.35-36.881-40.35h-458.57l145.452-152.448c7.031-7.403 10.906-17.007 10.906-27.533 0-10.513-3.874-20.254-10.906-27.648l-22.383-23.475c-7.040-7.403-16.414-11.435-26.423-11.435-10.001 0-19.383 4.087-26.419 11.486l-246.536 259.302c-7.054 7.424-10.934 17.335-10.906 27.874-0.022 10.569 3.852 20.489 10.912 27.9z" />
<glyph unicode="&#xe918;" glyph-name="arrow-left-square" d="M170.667 832h682.667c23.565 0 42.667-19.102 42.667-42.667v-682.667c0-23.565-19.102-42.667-42.667-42.667h-682.667c-23.564 0-42.667 19.102-42.667 42.667v682.667c0 23.564 19.102 42.667 42.667 42.667zM449.084 653.144l-184.9-185.219c-5.295-5.295-8.2-12.378-8.183-19.93-0.021-7.526 2.889-14.605 8.18-19.908l184.9-185.216c5.278-5.286 12.314-8.205 19.814-8.205 7.509 0 14.541 2.88 19.819 8.166l16.789 16.768c5.274 5.282 8.179 12.241 8.179 19.75 0 7.518-2.906 14.379-8.179 19.665l-109.090 108.894h343.927c15.454 0 27.661 13.338 27.661 28.821v23.778c0 15.479-12.207 27.597-27.661 27.597h-342.704l107.871 108.289c5.274 5.279 8.179 12.567 8.179 20.081 0 7.518-2.906 14.569-8.179 19.848l-16.789 16.82c-5.278 5.283-12.309 8.189-19.819 8.189-7.501 0-14.537-2.902-19.814-8.189z" />
<glyph unicode="&#xe919;" glyph-name="arrow-right" d="M842.423 474.85l-246.537 249.555c-7.036 7.124-16.418 11.034-26.419 11.034-10.010 0-19.388-3.916-26.423-11.034l-22.383-22.663c-7.031-7.112-10.906-16.612-10.906-26.741 0-10.124 3.874-19.944 10.906-27.056l143.825-145.907h-456.94c-20.602 0-36.88-16.324-36.88-37.184v-32.038c0-20.86 16.279-38.831 36.88-38.831h458.569l-145.451-146.722c-7.031-7.121-10.906-16.363-10.906-26.492 0-10.121 3.874-19.494 10.906-26.615l22.383-22.588c7.040-7.125 16.414-11.004 26.423-11.004 10.001 0 19.383 3.93 26.419 11.055l246.537 249.549c7.053 7.147 10.931 16.687 10.906 26.829 0.021 10.172-3.853 19.716-10.91 26.854z" />
<glyph unicode="&#xe91a;" glyph-name="arrow-right-square" d="M170.667 832c-23.564 0-42.667-19.103-42.667-42.667v-682.667c0-23.565 19.103-42.667 42.667-42.667h682.667c23.565 0 42.667 19.102 42.667 42.667v682.667c0 23.564-19.102 42.667-42.667 42.667h-682.667zM574.916 653.144l184.9-185.219c5.295-5.295 8.201-12.378 8.183-19.93 0.021-7.526-2.889-14.605-8.179-19.908l-184.9-185.216c-5.278-5.286-12.314-8.205-19.814-8.205-7.509 0-14.541 2.88-19.819 8.166l-16.789 16.768c-5.274 5.282-8.179 12.241-8.179 19.75 0 7.518 2.906 14.379 8.179 19.665l109.090 108.894h-343.928c-15.452 0-27.66 13.338-27.66 28.817v23.782c0 15.479 12.209 27.597 27.66 27.597h342.703l-107.87 108.289c-5.274 5.279-8.179 12.567-8.179 20.081 0 7.518 2.906 14.569 8.179 19.848l16.789 16.82c5.278 5.283 12.309 8.189 19.819 8.189 7.501 0 14.537-2.902 19.814-8.189z" />
<glyph unicode="&#xe91b;" glyph-name="arrow-up" d="M539.895 778.422l259.307-246.535c7.403-7.036 11.465-16.418 11.465-26.419 0-10.010-4.070-19.388-11.465-26.423l-23.548-22.383c-7.39-7.031-17.263-10.906-27.789-10.906-10.517 0-20.719 3.874-28.113 10.906l-151.603 143.825v-456.938c0-20.604-16.964-36.881-38.639-36.881h-33.289c-21.675 0-40.35 16.277-40.35 36.881v458.57l-152.45-145.452c-7.402-7.031-17.004-10.906-27.529-10.906-10.513 0-20.256 3.874-27.652 10.906l-23.472 22.383c-7.402 7.040-11.436 16.414-11.436 26.423 0 10.001 4.086 19.383 11.488 26.419l259.3 246.536c7.424 7.054 17.335 10.934 27.874 10.906 10.569 0.022 20.489-3.852 27.9-10.912z" />
<glyph unicode="&#xe91c;" glyph-name="arrow-up-square" d="M170.667 832c-23.564 0-42.667-19.102-42.667-42.667v-682.667c0-23.565 19.102-42.667 42.667-42.667h682.667c23.565 0 42.667 19.102 42.667 42.667v682.667c0 23.564-19.102 42.667-42.667 42.667h-682.667zM306.856 510.916l185.219 184.9c5.295 5.295 12.378 8.2 19.93 8.183 7.526 0.021 14.605-2.889 19.908-8.18l185.216-184.9c5.286-5.278 8.205-12.314 8.205-19.814 0-7.509-2.88-14.541-8.166-19.819l-16.768-16.789c-5.282-5.274-12.241-8.179-19.75-8.179-7.518 0-14.379 2.906-19.665 8.179l-108.894 109.090v-343.927c0-15.454-13.338-27.661-28.821-27.661h-23.778c-15.479 0-27.597 12.207-27.597 27.661v342.704l-108.289-107.871c-5.279-5.274-12.567-8.179-20.081-8.179-7.518 0-14.569 2.906-19.848 8.179l-16.82 16.789c-5.283 5.278-8.189 12.309-8.189 19.819 0 7.501 2.902 14.537 8.189 19.814z" />
<glyph unicode="&#xe91d;" glyph-name="bank" d="M878.545 517.82c9.647 0 17.455 7.757 17.455 17.405v69.81c0 6.153-3.238 11.862-8.542 14.999l-341.897 203.041c-21.222 11.761-45.154 12.119-67.601-0.239l-341.42-202.802c-5.302-3.135-8.54-8.846-8.54-14.999v-69.81c0-9.648 7.807-17.405 17.455-17.405h52.364v-314.197c-38.507 0-69.818-31.309-69.818-69.811v-52.356c0-9.647 7.807-17.455 17.455-17.455h733.090c9.647 0 17.455 7.804 17.455 17.455v52.356c0 38.502-31.313 69.811-69.82 69.811v314.197h52.365zM442.18 203.635h-104.726v314.185h104.726v-314.185zM511.966 587.549c-38.524 0-69.854 31.327-69.854 69.845s31.33 69.845 69.854 69.845c38.524 0 69.85-31.327 69.85-69.845s-31.33-69.845-69.85-69.845zM686.545 203.635h-104.73v314.185h104.73v-314.185z" />
<glyph unicode="&#xe91e;" glyph-name="maintenance" d="M702.050 524.826c26.752-6.754 54.822-6.281 81.335 1.378 26.509 7.657 50.513 22.221 69.559 42.203 19.042 19.983 32.439 44.666 38.827 71.529 6.383 26.863 5.525 54.939-2.487 81.361-0.606 1.992-1.719 3.792-3.234 5.222s-3.375 2.441-5.397 2.934h-2.876c-3.162-0.045-6.178-1.338-8.388-3.599l-60.416-60.213-59.217 19.911-19.895 59.014 60.412 60.453c1.515 1.447 2.624 3.266 3.217 5.275s0.649 4.139 0.166 6.177c-0.486 2.038-1.498 3.914-2.931 5.44s-3.243 2.65-5.248 3.258c-26.402 8.018-54.464 8.876-81.31 2.487-26.842-6.389-51.511-19.797-71.479-38.852-19.972-19.055-34.526-43.075-42.18-69.604-7.65-26.528-8.128-54.615-1.374-81.388l-333.96-333.69h-6.473c-23.708 0-46.884-7.036-66.596-20.215s-35.077-31.915-44.149-53.828c-9.073-21.918-11.446-46.037-6.821-69.303s16.042-44.638 32.806-61.414c16.764-16.777 38.123-28.198 61.375-32.828s47.354-2.253 69.258 6.827c21.903 9.079 40.625 24.452 53.796 44.177s20.202 42.914 20.202 66.637c0.127 2.159 0.127 4.322 0 6.481l333.48 334.17zM587.934 540.418l47.945 47.979c2.257 2.258 5.321 3.527 8.512 3.527s6.255-1.269 8.512-3.527c2.257-2.259 3.524-5.322 3.524-8.516s-1.267-6.257-3.524-8.516l-47.949-47.98c-2.257-2.257-5.321-3.524-8.512-3.524s-6.251 1.267-8.508 3.524c-2.257 2.261-3.529 5.325-3.529 8.516 0 3.196 1.271 6.259 3.529 8.518zM492.036 444.459l47.949 47.979c2.257 2.261 5.316 3.529 8.508 3.529 3.196 0 6.255-1.267 8.512-3.529 2.257-2.257 3.524-5.321 3.524-8.516 0-3.191-1.267-6.255-3.524-8.516l-47.949-47.979c-2.257-2.257-5.316-3.524-8.508-3.524-3.196 0-6.255 1.267-8.512 3.524-2.257 2.261-3.524 5.325-3.524 8.516 0 3.196 1.267 6.259 3.524 8.516zM396.14 348.501l47.948 47.979c2.257 2.261 5.321 3.529 8.512 3.529s6.255-1.267 8.512-3.529c2.257-2.257 3.524-5.321 3.524-8.516 0-3.191-1.267-6.255-3.524-8.516l-47.95-47.974c-2.257-2.261-5.318-3.529-8.511-3.529s-6.254 1.267-8.511 3.529c-2.257 2.257-3.525 5.321-3.525 8.516 0 3.191 1.268 6.255 3.525 8.512zM268.598 148.194h-39.797l-19.898 35.981 20.138 35.985h39.557l19.898-35.985-19.898-35.981zM316.546 235.755c-2.257-2.261-5.318-3.529-8.511-3.529s-6.254 1.267-8.511 3.529c-2.257 2.257-3.525 5.321-3.525 8.516 0 3.191 1.268 6.255 3.525 8.516l47.948 47.979c2.257 2.257 5.319 3.524 8.511 3.524s6.254-1.267 8.511-3.524c2.257-2.261 3.526-5.325 3.526-8.516 0-3.196-1.268-6.259-3.526-8.516l-47.948-47.979zM666.086 455.019l-160.866-160.969 196.587-196.715c10.564-10.569 23.104-18.953 36.902-24.67 13.803-5.722 28.595-8.666 43.533-8.666s29.73 2.944 43.529 8.666c13.803 5.717 26.342 14.101 36.902 24.67 10.564 10.573 18.944 23.121 24.657 36.928 5.717 13.811 8.661 28.612 8.661 43.558s-2.944 29.747-8.661 43.558c-5.713 13.807-14.093 26.355-24.657 36.924l-196.587 196.715zM772.531 139.558c-1.114-1.122-2.441-2.018-3.9-2.624-1.459-0.61-3.029-0.922-4.612-0.922-1.579 0-3.149 0.311-4.608 0.922-1.459 0.606-2.786 1.502-3.9 2.624l-167.821 167.923c-2.257 2.261-3.524 5.325-3.524 8.516 0 3.196 1.267 6.259 3.524 8.516 2.257 2.261 5.321 3.529 8.512 3.529s6.255-1.267 8.512-3.529l167.817-167.923c2.197-2.24 3.426-5.257 3.426-8.397s-1.229-6.153-3.426-8.397v-0.239zM820.48 187.537c-1.114-1.122-2.441-2.018-3.9-2.624-1.463-0.61-3.029-0.922-4.612-0.922s-3.149 0.311-4.608 0.922c-1.463 0.606-2.786 1.502-3.9 2.624l-167.821 167.923c-2.257 2.261-3.524 5.325-3.524 8.516 0 3.196 1.267 6.259 3.524 8.516 2.257 2.261 5.321 3.529 8.512 3.529s6.255-1.267 8.512-3.529l167.817-167.923c2.197-2.24 3.426-5.257 3.426-8.397s-1.229-6.153-3.426-8.397v-0.239zM178.696 717.221c1.14-1.731 2.71-3.136 4.555-4.078l46.27-23.989 26.132-25.189-3.596-3.599c-1.123-1.115-2.015-2.442-2.624-3.903s-0.922-3.030-0.922-4.613c0-1.583 0.314-3.151 0.922-4.613s1.5-2.788 2.624-3.904l154.393-154.489 64.971 65.009-154.394 154.491c-1.114 1.124-2.44 2.016-3.901 2.625s-3.027 0.922-4.61 0.922c-1.583 0-3.149-0.313-4.61-0.922s-2.787-1.501-3.901-2.625l-3.357-3.359-26.132 26.148-23.974 46.299c-0.942 1.846-2.346 3.417-4.076 4.558l-71.922 47.979c-2.297 1.54-5.056 2.238-7.808 1.975s-5.33-1.469-7.295-3.415l-23.974-23.989c-1.945-1.967-3.151-4.546-3.412-7.3s0.435-5.515 1.974-7.813l48.667-72.208z" />
<glyph unicode="&#xe91f;" glyph-name="bet" d="M354.749 484.757c0 6.818-5.83 12.348-12.999 12.348h-20.643v-24.678h20.643c7.169 0 12.999 5.53 12.999 12.331zM375.351 411.243c0 6.801-5.83 12.331-13 12.331h-41.244v-24.678h41.244c7.169 0 13 5.53 13 12.348zM829.756 635.706h-52.181v155.913c0 45.803-39.287 83.047-87.556 83.047h-356.056c-48.269 0-87.556-37.244-87.556-83.047v-155.913h-52.183c-48.269 0-87.556-37.264-87.556-83.047v-209.316c0-45.786 39.287-83.051 87.556-83.051h52.183v-155.913c0-45.803 39.287-83.046 87.556-83.046h356.077c48.269 0 87.556 37.244 87.556 83.046v155.913h52.181c48.269 0 87.556 37.265 87.556 83.051v209.316c0 45.783-39.309 83.047-87.578 83.047zM534.477 472.427c14.212 0 25.749-10.944 25.749-24.427s-11.537-24.427-25.749-24.427h-36.979v-24.678h50.513c14.238 0 25.754-10.944 25.754-24.427s-11.516-24.427-25.754-24.427h-76.267c-14.234 0-25.749 10.944-25.749 24.427v147.063c0 13.482 11.516 24.425 25.749 24.425h76.267c14.238 0 25.754-10.943 25.754-24.425s-11.516-24.427-25.754-24.427h-50.513v-24.678h36.979zM406.253 484.757c0-8.695-1.937-16.964-5.398-24.465 15.781-11.157 25.999-29.001 25.999-49.050 0-33.745-28.945-61.201-64.503-61.201h-66.996c-14.215 0-25.752 10.944-25.752 24.427v147.063c0 13.482 11.537 24.425 25.752 24.425h46.394c35.558 0 64.503-27.454 64.503-61.199zM696.653 374.468c0-13.483-11.537-24.427-25.754-24.427s-25.754 10.944-25.754 24.427v122.637h-31.97c-14.217 0-25.754 10.944-25.754 24.427s11.537 24.425 25.754 24.425h115.426c14.217 0 25.754-10.943 25.754-24.425s-11.537-24.427-25.754-24.427h-31.949v-122.637zM297.889 791.619c0 18.857 16.172 34.196 36.052 34.196h74.021v-7.601c0-24.25 20.786-43.966 46.352-43.966h115.307c25.566 0 46.353 19.716 46.353 43.966v7.601h74.022c19.878 0 36.053-15.34 36.053-34.196v-155.913h-428.161v155.913zM726.071 104.38c0-18.854-16.175-34.193-36.053-34.193h-356.076c-19.881 0-36.052 15.339-36.052 34.193v155.913h428.182v-155.913z" />
<glyph unicode="&#xe920;" glyph-name="bet-history" d="M796.036 690.869c-61.555 63.673-141.218 104.162-227.678 116.478l24.64 24.643c9.766 9.763 9.766 25.591 0 35.355-9.762 9.762-25.591 9.762-35.354 0l-63.313-63.31c-9.762-9.762-9.762-25.591 0-35.355l63.313-63.31c4.881-4.881 11.277-7.323 17.677-7.323 6.396 0 12.796 2.442 17.677 7.323 9.762 9.762 9.762 25.592 0 35.355l-14.161 14.159c68.689-13.442 131.686-47.498 181.248-98.765 62.511-64.66 96.934-149.815 96.934-239.773 0.004-190.238-154.769-345.011-345.007-345.011-190.24 0-345.013 154.773-345.013 345.011 0 72.593 22.278 142.032 64.428 200.812 41.275 57.562 98.175 100.513 164.553 124.21 13.003 4.643 19.78 18.947 15.138 31.952-4.642 13.003-18.948 19.78-31.952 15.138-76.005-27.135-141.143-76.295-188.375-142.163-48.277-67.327-73.793-146.842-73.793-229.948 0-105.515 41.088-204.71 115.697-279.317 74.608-74.603 173.803-115.691 279.316-115.691 105.51 0 204.706 41.088 279.313 115.695s115.695 173.803 115.695 279.313c0 102.997-39.415 200.492-110.985 274.523zM487.932 290.965c-20.621-16.115-47.595-30.737-77.554-30.737-75.34 0-127.94 52.514-127.961 127.684 0 82.88 65.359 136.427 128.571 188.205l0.435 0.357c29.704 24.357 60.407 49.536 84.001 77.448 4.002 4.695 9.835 7.412 15.962 7.412h1.22c6.127 0 11.959-2.716 15.94-7.412 23.475-27.834 54.037-52.896 83.622-77.155l0.815-0.67c63.189-51.779 128.529-105.347 128.529-188.205 0-75.149-52.642-127.663-127.94-127.663-29.935 0-56.845 14.601-77.436 30.703 12.902-43.742 30.921-92.791 53.952-127.424-51.695 8.947-104.188 9.348-156.284 0 23.215 34.641 41.254 83.703 54.127 127.458z" />
<glyph unicode="&#xe921;" glyph-name="bin" d="M848.764 784h-194.287l-15.219 28.051c-6.575 12.231-20.062 19.96-34.812 19.949h-185.055c-14.722 0.052-28.181-7.697-34.647-19.949l-15.22-28.051h-194.287c-14.306 0-25.905-10.746-25.905-24v-48c0-13.254 11.599-24 25.905-24h673.526c14.306 0 25.903 10.746 25.903 24v48c0 13.254-11.597 24-25.903 24zM235.467 131.499c2.565-37.939 36.522-67.494 77.552-67.499h397.962c41.033 0.004 74.991 29.559 77.555 67.499l34.321 508.501h-621.713l34.324-508.501z" />
<glyph unicode="&#xe922;" glyph-name="cancel" d="M512 21.333c235.639 0 426.667 191.027 426.667 426.667s-191.027 426.667-426.667 426.667c-235.641 0-426.667-191.025-426.667-426.667 0-235.639 191.025-426.667 426.667-426.667zM669.193 661.333l56.141-57.658-157.193-161.44 145.963-149.914-56.137-57.655-145.967 149.909-145.965-149.909-56.141 57.655 145.965 149.914-157.193 161.44 56.141 57.658 157.193-161.442 157.193 161.442z" />
<glyph unicode="&#xe923;" glyph-name="caret-down" d="M456.435 303.104l-186.874 221.615c-31.403 37.248-4.781 93.948 44.115 93.948h396.625c48.896 0 75.516-56.742 44.113-93.948l-186.876-221.615c-28.971-34.347-82.133-34.347-111.104 0z" />
<glyph unicode="&#xe924;" glyph-name="caret-left" d="M367.093 503.552l221.613 186.876c37.248 31.403 93.948 4.782 93.948-44.114v-396.624c0-48.896-56.742-75.52-93.948-44.117l-221.613 186.876c-34.347 28.971-34.347 82.133 0 111.104z" />
<glyph unicode="&#xe925;" glyph-name="caret-right" d="M656.896 392.448l-221.615-186.876c-37.248-31.403-93.948-4.779-93.948 44.117v396.624c0 48.896 56.742 75.517 93.948 44.114l221.615-186.876c34.347-28.971 34.347-82.133 0-111.104z" />
<glyph unicode="&#xe926;" glyph-name="caret-up" d="M567.539 592.896l186.876-221.615c31.403-37.248 4.783-93.948-44.113-93.948h-396.625c-48.896 0-75.517 56.742-44.115 93.948l186.874 221.615c28.971 34.347 82.133 34.347 111.104 0z" />
<glyph unicode="&#xe927;" glyph-name="chart-trend-up" d="M143.188 251.49v-130.291c0-7.927 6.837-14.532 15.427-14.532h106.942c8.415 0 15.428 6.438 15.428 14.532v229.205l-77.664-73.152c-16.48-15.36-37.518-24.277-60.133-25.762zM334.281 352.055v-230.857c0-7.927 6.837-14.532 15.428-14.532h106.944c8.414 0 15.428 6.438 15.428 14.532v135.906c-24.371 0.495-47.162 9.579-64.343 25.762l-73.457 69.188zM525.376 271.471v-150.272c0-7.927 6.835-14.532 15.428-14.532h106.94c8.414 0 15.428 6.438 15.428 14.532v277.261l-122.543-115.43c-4.736-4.459-9.822-8.256-15.253-11.558zM843.921 568.879l-127.454-120.051v-327.629c0-7.927 6.839-14.532 15.428-14.532h106.944c8.414 0 15.428 6.438 15.428 14.532v438.597c-3.507 2.807-6.135 5.284-8.064 6.936l-2.283 2.147zM931.405 781.572c-5.086 5.119-12.796 7.761-22.618 7.761-0.875 0-1.924 0-2.803 0-49.788-2.147-99.405-4.459-149.193-6.605-6.665-0.33-15.778-0.661-22.967-7.431-2.278-2.147-4.032-4.624-5.436-7.596-7.36-15.028 2.982-24.771 7.889-29.394l12.45-11.889c8.589-8.257 17.357-16.513 26.121-24.605l-300.843-283.538-135.166 127.32c-8.065 7.596-18.934 11.89-30.505 11.89s-22.265-4.294-30.33-11.89l-180.049-169.428c-16.83-15.855-16.83-41.451 0-57.301l8.065-7.595c8.064-7.599 18.934-11.891 30.505-11.891s22.265 4.292 30.33 11.891l141.48 133.261 135.168-127.317c8.064-7.595 18.935-11.891 30.502-11.891 11.571 0 22.268 4.297 30.507 11.891l339.409 319.7 38.396-35.999c4.557-4.294 10.871-10.238 20.51-10.238 4.036 0 8.068 0.991 12.275 3.137 2.803 1.487 5.257 3.138 7.36 5.119 7.539 7.101 8.943 16.183 9.293 23.284 1.404 30.385 2.982 60.77 4.561 91.319l2.278 45.743c0.525 9.578-1.754 17.009-7.189 22.293z" />
<glyph unicode="&#xe928;" glyph-name="check" d="M442.065 222.374c-5.705-5.803-13.483-9.041-21.564-9.041s-15.86 3.238-21.563 9.041l-172.2 174.281c-17.873 18.082-17.873 47.403 0 65.455l21.563 21.82c17.873 18.086 46.816 18.086 64.689 0l107.511-108.787 290.509 293.961c17.873 18.085 46.848 18.085 64.687 0l21.564-21.819c17.873-18.085 17.873-47.404 0-65.458l-355.196-359.451z" />
<glyph unicode="&#xe929;" glyph-name="check-circle-fill" d="M512 21.333c-235.642 0-426.667 191.027-426.667 426.667s191.025 426.667 426.667 426.667c235.644 0 426.667-191.025 426.667-426.667 0-235.639-191.023-426.667-426.667-426.667zM433.574 234.667c6.925 0 13.594 2.65 18.479 7.398l304.457 294.095c15.322 14.772 15.322 38.76 0 53.557l-18.483 17.852c-15.292 14.797-40.128 14.797-55.445 0l-249.007-240.512-92.154 89.007c-15.319 14.797-40.129 14.797-55.448 0l-18.483-17.852c-15.319-14.771-15.319-38.758 0-53.555l147.6-142.592c4.889-4.749 11.555-7.398 18.484-7.398z" />
<glyph unicode="&#xe92a;" glyph-name="clock" d="M512 789.333c-67.507 0-133.503-20.019-189.635-57.525s-99.881-90.815-125.716-153.186c-25.835-62.369-32.594-131.002-19.424-197.213 13.17-66.214 45.679-127.031 93.416-174.771 47.736-47.735 108.556-80.243 174.769-93.414 66.21-13.171 134.844-6.409 197.214 19.426s115.678 69.581 153.186 125.713c37.504 56.132 57.523 122.129 57.523 189.636-0.107 90.494-36.105 177.252-100.092 241.241-63.991 63.989-150.746 99.985-241.242 100.092zM627.029 332.971c-5.82-5.815-13.709-9.084-21.939-9.084-8.226 0-16.119 3.268-21.939 9.084l-93.090 93.090c-5.82 5.82-9.088 13.709-9.092 21.939v186.182c0 8.23 3.273 16.122 9.088 21.942 5.82 5.819 13.713 9.088 21.943 9.088s16.124-3.269 21.943-9.088c5.82-5.819 9.088-13.712 9.088-21.942v-173.335l83.998-83.998c5.815-5.82 9.084-13.713 9.084-21.939 0-8.23-3.268-16.119-9.084-21.939z" />
<glyph unicode="&#xe92b;" glyph-name="close" d="M810.667 674.822l-70.157 71.844-228.51-234.005-228.51 234.005-70.157-71.844 228.51-234.007-214.479-219.639 70.156-71.842 214.479 219.639 214.477-219.639 70.157 71.842-214.477 219.639 228.51 234.007z" />
<glyph unicode="&#xe92c;" glyph-name="contact" d="M512 874.667c-84.386 0-166.878-25.024-237.043-71.906s-124.852-113.519-157.145-191.482c-32.294-77.962-40.743-163.752-24.28-246.517s57.099-158.788 116.77-218.462c59.67-59.669 135.695-100.305 218.46-116.766 82.765-16.465 168.555-8.017 246.515 24.277 77.965 32.294 144.602 86.98 191.484 157.146s71.906 152.657 71.906 237.043c0 113.159-44.954 221.684-124.966 301.699-80.017 80.015-188.54 124.968-301.7 124.968zM530.291 612.58c38.784-0.045 75.968-15.473 103.39-42.897 27.426-27.425 42.854-64.607 42.897-103.391h-36.578c-0.030 29.086-11.597 56.973-32.166 77.542s-48.457 32.137-77.542 32.166v36.58zM648.759 192c-1.109 0-110.933 1.877-252.158 140.599-138.724 141.171-140.601 251.052-140.601 252.162 0 13.681 85.333 119.239 104.192 119.239 6.543 0 11.634-4.437 17.209-11.093 13.425-15.986 72.788-109.682 70.057-125.298-1.306-7.339-7.535-12.913-25.399-27.904-8.802-6.918-17.039-14.53-24.633-22.756 3.637-15.053 9.041-29.623 16.099-43.405 26.3-54.071 69.99-97.745 124.075-124.019 13.786-7.057 28.352-12.463 43.405-16.098 8.23 7.595 15.838 15.829 22.758 24.631 14.989 17.865 20.565 24.094 27.904 25.399 15.616 2.846 109.312-56.631 125.295-70.059 6.656-5.687 11.093-10.667 11.093-17.207-0.055-18.859-105.613-104.192-119.296-104.192zM731.422 466.291c-0.060 53.325-21.269 104.447-58.978 142.153-37.705 37.706-88.828 58.916-142.153 58.976v36.579c63.019-0.075 123.439-25.144 168-69.707 44.565-44.563 69.632-104.983 69.709-168.002h-36.578z" />
<glyph unicode="&#xe92d;" glyph-name="copy" d="M283.804 287.616v378.785h-56.677c-31.319 0-56.46-26.007-56.46-58.015v-486.372c0-32.009 25.141-58.014 56.46-58.014h356.195c31.322 0 56.678 26.005 56.678 58.014v58.018h-251.404c-57.977 0-104.792 48.235-104.792 107.584zM848.563 644.396l-178.266 182.714c-2.927 3.112-6.933 4.89-11.379 4.89h-270.322c-31.318 0-56.677-26.007-56.677-58.015v-486.373c0-32.004 25.359-58.014 56.677-58.014h408.059c31.322 0 56.678 26.010 56.678 58.014v345.003c0.107 4.445-1.626 8.669-4.77 11.781z" />
<glyph unicode="&#xe92e;" glyph-name="crown" d="M938.667 630.767l-211.678-76.833 12.604-25.67c17.933-36.582 0.649-81.762-45.79-94.912-0.585-0.201-64.909-17.788-84.442 41.809l-18.829 57.609 53.581 54.594-132.211 201.969-132.208-201.969 53.577-54.594-18.828-57.609c-12.186-37.184-38.339-49.719-84.688-40.742-5.061 2.513-31.492 3.678-46.446 36.838-8.253 18.257-7.912 39.023 0.904 57.007l12.576 25.646-211.457 76.882 94.343-371.307h221.849l110.376 112.427 110.379-112.427h221.897l94.49 371.281zM447.134 234.039l64.653 65.852 64.653-65.852-64.653-65.856-64.653 65.856zM401.526 208.546h-214.698v-101.879h314.719l-100.021 101.879zM836.975 208.546h-214.694l-100.023-101.879h314.718v101.879z" />
<glyph unicode="&#xe92f;" glyph-name="dark-mode" d="M864.951 228.698c32.068 2.227 56.311-32.371 34.974-56.418-82.146-92.591-202.035-150.946-335.552-150.946-247.651 0-448.415 200.764-448.415 448.418 0 175.745 101.103 327.877 248.319 401.405 28.756 14.362 55.795-18.045 45.282-48.421-15.909-45.97-24.551-95.332-24.551-146.714 0-247.653 200.762-448.417 448.416-448.417 10.598 0 21.111 0.367 31.526 1.092zM618.086 583.031c5.431 2.547 9.86 6.838 12.574 12.19l33.357 65.759c10.3 20.303 39.59 19.435 48.67-1.443l27.328-62.856c2.718-6.246 7.701-11.229 13.948-13.945l58.547-25.457c21.568-9.378 21.568-39.966 0-49.349l-58.547-25.455c-6.246-2.718-11.23-7.697-13.948-13.943l-27.328-62.857c-9.079-20.877-38.37-21.747-48.67-1.442l-33.357 65.758c-2.714 5.35-7.142 9.643-12.574 12.19l-55.603 26.065c-20.646 9.677-20.646 39.042 0 48.721l55.603 26.065z" />
<glyph unicode="&#xe930;" glyph-name="deposit-history" d="M568.358 807.347c86.46-12.317 166.123-52.805 227.678-116.478 71.569-74.032 110.985-171.526 110.985-274.523 0-105.51-41.088-204.706-115.695-279.313s-173.803-115.695-279.313-115.695c-105.513 0-204.708 41.088-279.316 115.691-74.609 74.607-115.697 173.803-115.697 279.317 0 83.106 25.516 162.621 73.793 229.948 47.232 65.868 112.37 115.028 188.375 142.163 13.004 4.642 27.31-2.135 31.952-15.138 4.642-13.005-2.135-27.308-15.138-31.952-66.378-23.697-123.279-66.648-164.553-124.21-42.15-58.78-64.428-128.218-64.428-200.812 0-190.238 154.773-345.011 345.013-345.011 190.238 0 345.011 154.773 345.007 345.011 0 89.958-34.423 175.113-96.934 239.773-49.562 51.267-112.559 85.323-181.248 98.765l14.161-14.159c9.762-9.763 9.762-25.593 0-35.355-4.881-4.881-11.281-7.323-17.677-7.323-6.4 0-12.796 2.442-17.677 7.323l-63.313 63.31c-9.762 9.763-9.762 25.593 0 35.355l63.313 63.31c9.762 9.762 25.591 9.762 35.354 0 9.766-9.763 9.766-25.592 0-35.355l-24.64-24.643zM512.026 159.612c-141.632 0-256.859 115.23-256.859 256.862s115.225 256.86 256.859 256.86c141.632 0 256.858-115.23 256.858-256.86 0-141.632-115.226-256.862-256.858-256.862zM455.411 428.834c15.125-11.866 35.977-21.892 71.962-34.615 22.848-8.077 22.362-26.526 21.086-34.082-2.598-15.475-15.616-32.196-38.050-32.346-22.788-0.158-29.333 0.879-46.639 12.203-11.55 7.556-27.046 4.322-34.607-7.236-7.558-11.554-4.32-27.051 7.236-34.607 18.662-12.211 32.542-17.331 49.173-19.285v-9.515c0-13.807 11.196-24.998 25.003-24.998s24.998 11.191 24.998 24.998v11.972c12.8 3.691 24.478 10.24 34.5 19.447 14.575 13.389 24.41 31.526 27.695 51.076 6.694 39.812-14.899 75.789-53.734 89.515-21.227 7.505-44.689 16.559-57.771 26.816-3.755 2.94-5.346 9.86-3.959 17.212 0.7 3.721 3.968 16.154 16.606 19.959 21.385 6.447 35.994-2.069 41.289-6.025 11.063-8.265 26.726-6.003 34.995 5.056 8.265 11.059 6.003 26.722-5.056 34.992-4.928 3.682-17.109 11.66-34.564 15.749v8.475c0 13.807-11.191 25-24.998 25s-25.003-11.194-25.003-25v-10.067c-0.166-0.049-0.333-0.094-0.499-0.14-0.196-0.053-0.388-0.106-0.585-0.166-26.342-7.935-46.007-30.382-51.319-58.58-4.898-25.988 3.622-51.209 22.242-65.809z" />
<glyph unicode="&#xe931;" glyph-name="dollar-receive-circle" d="M817.323 691.537c0 7.942-4.454 11.074-8.87 12.3l-504.66 104.068c-0.987 0.288-1.98 0.554-2.979 0.797-36.162 8.813-72.75-12.842-81.721-48.367l-18.335-76.74h605.344c3.75-0.041 11.221 0 11.221 7.942zM857.6 651.826h-691.2c-23.040 0-38.4-15.089-38.4-37.725v-471.275c0-22.635 15.36-57.493 38.4-57.493h691.2c23.040 0 38.4 34.859 38.4 57.493v471.275c0 22.635-15.36 37.725-38.4 37.725zM819.2 234.667c-42.278 0-76.8-33.911-76.8-75.447h-460.8c0 41.536-34.601 75.447-76.8 75.447v266.261c42.199 0 76.8 33.993 76.8 75.45h460.8c0-41.457 34.522-75.45 76.8-75.45v-266.261zM512 234.667c70.694 0 128 57.306 128 128s-57.306 128-128 128c-70.694 0-128-57.306-128-128s57.306-128 128-128zM501.999 442.667h25.003v-69.999h64.998v-25.003h-64.998v-64.998h-25.003v64.998h-69.999v25.003h69.999v69.999z" />
<glyph unicode="&#xe932;" glyph-name="dollar-send-circle" d="M817.323 683.782c0 8.459-4.454 11.795-8.87 13.1l-504.66 110.841c-0.987 0.307-1.98 0.59-2.979 0.849-36.162 9.387-72.75-13.678-81.721-51.515l-18.335-81.735h605.344c3.75-0.044 11.221 0 11.221 8.459zM857.6 641.488h-691.2c-23.040 0-38.4-16.072-38.4-40.18v-475.795c0-24.107 15.36-40.179 38.4-40.179h691.2c23.040 0 38.4 16.073 38.4 40.179v475.795c0 24.108-15.36 40.18-38.4 40.18zM819.2 246.054c-42.278 0-76.8-36.122-76.8-80.363h-460.8c0 44.241-34.601 80.363-76.8 80.363v234.714c42.199 0 76.8 36.203 76.8 80.36h460.8c0-44.157 34.522-80.36 76.8-80.36v-234.714zM512 234.667c-70.694 0-128 57.306-128 128s57.306 128 128 128c70.694 0 128-57.306 128-128s-57.306-128-128-128zM592 350.097v28.57h-160v-28.57h160z" />
<glyph unicode="&#xe933;" glyph-name="double-check" d="M476.582 480.098l197.397 181.201 37.606-34.521-197.397-181.201-37.606 34.522zM203.226 461.756l45.45 41.719-37.613 34.528-83.064-76.247 247.389-227.089 37.612 34.526-209.775 192.563zM514.253 234.667l381.747 350.419-83.063 76.248-298.684-274.172-164.323 150.842-83.064-76.247 247.387-227.089z" />
<glyph unicode="&#xe934;" glyph-name="down" d="M512.128 392.034l-223.472 217.355c-6.138 5.985-14.346 9.277-23.097 9.277-8.756 0-16.958-3.293-23.107-9.277l-19.571-19.046c-6.158-5.975-9.548-13.964-9.548-22.476s3.39-16.49 9.548-22.47l266.062-258.797c6.165-6.003 14.409-9.293 23.168-9.267 8.802-0.026 17.033 3.26 23.206 9.267l265.801 258.556c6.161 5.98 9.549 13.958 9.549 22.476 0 8.512-3.388 16.49-9.549 22.475l-19.571 19.041c-12.736 12.39-33.472 12.39-46.208 0l-223.211-217.114z" />
<glyph unicode="&#xe935;" glyph-name="event" d="M875.789 661.333v-56.889h-727.581v56.889c0 15.088 5.897 29.558 16.393 40.227s24.732 16.662 39.575 16.662h83.952v85.333c0 7.544 2.948 14.779 8.196 20.113s12.366 8.331 19.788 8.331c7.421 0 14.54-2.997 19.788-8.331s8.196-12.57 8.196-20.113v-85.333h335.807v85.333c0 7.544 2.948 14.779 8.196 20.113s12.365 8.331 19.785 8.331c7.424 0 14.541-2.997 19.789-8.331s8.196-12.57 8.196-20.113v-85.333h83.951c14.844 0 29.082-5.993 39.578-16.662s16.393-25.139 16.393-40.227zM148.208 547.555h727.581v-426.668c0-15.087-5.897-29.555-16.393-40.226-10.496-10.667-24.734-16.661-39.578-16.661h-615.643c-14.843 0-29.079 5.995-39.575 16.661-10.496 10.671-16.393 25.139-16.393 40.226v426.668zM353.889 344.179l55.968-54.613c2.646-2.492 4.625-5.628 5.751-9.109 1.126-3.486 1.362-7.202 0.686-10.803l-12.873-77.367c-0.682-4.177-0.206-8.461 1.376-12.378 1.582-3.913 4.207-7.3 7.578-9.783s7.359-3.959 11.511-4.267c4.151-0.307 8.306 0.572 11.997 2.534l67.998 36.407c3.255 1.673 6.848 2.547 10.496 2.547s7.241-0.875 10.492-2.547l68.002-36.407c3.635-1.596 7.625-2.185 11.554-1.698 3.934 0.482 7.667 2.014 10.825 4.446 3.162 2.428 5.628 5.666 7.151 9.378 1.527 3.716 2.057 7.774 1.532 11.767l-12.873 77.367c-0.674 3.601-0.439 7.317 0.687 10.803 1.126 3.482 3.106 6.618 5.751 9.109l55.966 54.613c2.931 2.995 4.996 6.75 5.969 10.859s0.815 8.41-0.457 12.433c-1.271 4.023-3.61 7.612-6.75 10.377-3.145 2.765-6.976 4.599-11.076 5.299l-76.395 11.093c-3.452 0.397-6.767 1.609-9.681 3.533s-5.35 4.514-7.108 7.561l-34.142 70.259c-1.86 3.772-4.719 6.942-8.252 9.156-3.533 2.219-7.603 3.392-11.755 3.392s-8.222-1.173-11.755-3.392c-3.533-2.214-6.391-5.385-8.256-9.156l-34.419-70.259c-1.591-3.311-3.951-6.182-6.878-8.363-2.923-2.18-6.323-3.605-9.911-4.151l-76.116-11.093c-3.857-0.819-7.438-2.641-10.39-5.295-2.952-2.65-5.173-6.037-6.444-9.83-1.271-3.789-1.549-7.851-0.805-11.78 0.744-3.934 2.483-7.603 5.046-10.641z" />
<glyph unicode="&#xe936;" glyph-name="eye-slash" d="M505.506 567.575l122.15-127.328 0.585 6.673c0 66.897-52.16 121.261-116.339 121.261l-6.396-0.606zM511.902 649.023c107.029 0 193.894-90.544 193.894-202.106 0-26.069-5.039-50.931-13.764-73.766l113.429-118.234c58.556 50.931 104.704 116.817 133.205 192-67.281 177.449-232.674 303.159-426.761 303.159-54.293 0-106.255-10.105-154.535-28.294l83.764-87.107c21.905 8.892 45.756 14.349 70.767 14.349zM124.112 759.171l106.061-110.552c-63.985-52.143-114.592-121.464-144.84-201.699 67.088-177.451 232.674-303.159 426.569-303.159 60.109 0 117.5 12.126 170.048 34.155l129.523-135.206 49.442 51.332-687.36 716.667-49.443-51.537zM338.561 535.844l59.913-62.449c-1.745-8.691-2.909-17.382-2.909-26.475 0-66.901 52.157-121.267 116.336-121.267 8.725 0 17.062 1.216 25.207 3.034l59.913-62.451c-25.788-13.338-54.481-21.423-85.12-21.423-107.029 0-193.895 90.543-193.895 202.108 0 31.932 7.757 61.841 20.554 88.924z" />
<glyph unicode="&#xe937;" glyph-name="filter" d="M234.583 832h554.669c35.328 0 64-28.672 64-64v-96.298c0-16.981-6.741-33.237-18.731-45.269l-218.5-218.496c-11.989-11.989-18.731-28.288-18.731-45.269v-298.667l-170.665 128v170.667c0 16.981-6.74 33.237-18.729 45.269l-218.495 218.496c-11.989 11.989-18.735 28.288-18.735 45.269v96.298c-0.085 35.328 28.589 64 63.917 64z" />
<glyph unicode="&#xe938;" glyph-name="gaming" d="M938.692 276.314c-2.001 106.406-15.151 214.012-36.719 322.62-17.566 75.459-80.768 142.666-181.751 147.588-74.551 2.931-88.964-37.658-173.431-36.877-23.134 0.143-46.251 0.143-69.385 0-84.485-0.781-98.935 39.808-173.452 36.877-101.001-4.922-166.167-71.954-181.818-147.588-21.583-108.608-34.734-216.197-36.717-322.607-0.483-74.086 76.050-123.375 126.551-126.75 97.551-7.040 175.051 157.367 234.102 157.385 44.015-0.239 88.017-0.256 132.032 0 59.068 0 136.503-164.442 234.121-157.402 50.483 3.379 128.986 52.996 126.468 126.754zM403.587 483.938h-45.5v-43.486c0-18.351-15.567-33.233-34.767-33.233s-34.767 14.882-34.767 33.233v43.486h-45.5c-19.2 0-34.767 14.878-34.767 33.229s15.567 33.229 34.767 33.229h45.5v43.488c0 18.351 15.567 33.229 34.767 33.229s34.767-14.878 34.767-33.229v-43.488h45.5c19.2 0 34.766-14.878 34.766-33.229s-15.565-33.229-34.766-33.229zM684.54 407.236c-27.217-0.7-49.852 19.849-50.586 45.845-0.717 26.095 20.8 47.757 48 48.427 27.234 0.653 49.903-19.878 50.603-45.909 0.683-26.027-20.8-47.693-48.017-48.363zM766.622 532.843c-27.217-0.734-49.899 19.831-50.65 45.844-0.683 26.061 20.8 47.693 48.034 48.41 27.268 0.685 49.899-19.881 50.633-45.909 0.717-26.013-20.817-47.693-48.017-48.346z" />
<glyph unicode="&#xe939;" glyph-name="gift-code" d="M698.667 312.243c14.729 0 26.667 12.156 26.667 27.149 0 14.997-11.938 27.153-26.667 27.153s-26.667-12.156-26.667-27.153c0-14.993 11.938-27.149 26.667-27.149zM538.667 529.455c14.729 0 26.667 12.156 26.667 27.151s-11.938 27.152-26.667 27.152c-14.729 0-26.667-12.156-26.667-27.152s11.938-27.151 26.667-27.151zM885.333 789.333h-506.667c-7.093 0-13.867-2.878-18.88-7.928l-34.453-35.134-34.453 35.134c-5.013 5.050-11.787 7.928-18.88 7.928h-133.333c-29.387 0-53.333-24.382-53.333-54.303v-574.062c0-29.973 23.947-54.302 53.333-54.302h133.333c7.093 0 13.867 2.88 18.88 7.927l34.453 35.136 34.453-35.081c5.013-5.103 11.787-7.983 18.88-7.983h506.667c29.44 0 53.333 24.329 53.333 54.302v574.062c0 29.921-23.893 54.303-53.333 54.303zM352 257.941h-53.333v54.302h53.333v-54.302zM352 366.545h-53.333v54.302h53.333v-54.302zM352 475.153h-53.333v54.302h53.333v-54.302zM352 583.758h-53.333v54.303h53.333v-54.303zM538.667 638.061c44.105 0 80-36.546 80-81.455s-35.895-81.453-80-81.453c-44.105 0-80 36.544-80 81.453s35.895 81.455 80 81.455zM485.333 257.941c-6.025 0-12.053 2.061-17.067 6.298-11.307 9.613-12.855 26.718-3.413 38.229l266.667 325.818c9.493 11.567 26.291 12.979 37.547 3.476 11.307-9.612 12.8-26.717 3.362-38.284l-266.667-325.817c-5.231-6.353-12.8-9.719-20.429-9.719zM698.667 257.941c-44.105 0-80 36.544-80 81.451 0 44.911 35.895 81.455 80 81.455s80-36.544 80-81.455c0-44.907-35.895-81.451-80-81.451z" />
<glyph unicode="&#xe93a;" glyph-name="gift-money" d="M192 74.667c0-8.486 3.372-16.627 9.373-22.626 6.001-6.003 14.141-9.374 22.627-9.374h576c8.486 0 16.627 3.371 22.626 9.374 6.003 5.999 9.374 14.14 9.374 22.626v426.671h-640v-426.671zM416 213.333h128v32h-64c-16.969 0.021-33.233 6.771-45.231 18.769-12 11.998-18.749 28.262-18.769 45.231v32c0.020 16.969 6.769 33.237 18.769 45.235 11.998 11.998 28.262 18.748 45.231 18.765v32h64v-32h64v-64h-128v-32h64c16.969-0.017 33.233-6.767 45.231-18.765s18.748-28.267 18.769-45.235v-32c-0.021-16.969-6.771-33.233-18.769-45.231s-28.262-18.748-45.231-18.769v-32h-64v32h-64v64zM864 661.336h-240.265c19.277 3.032 36.454 7.72 47.761 14.876 10.65 6.743 19.87 15.518 27.132 25.824s12.42 21.942 15.185 34.242c2.765 12.3 3.076 25.024 0.926 37.446-2.155 12.422-6.733 24.298-13.478 34.95-6.741 10.652-15.518 19.872-25.822 27.133-10.308 7.261-21.943 12.421-34.244 15.185s-25.024 3.078-37.444 0.925c-12.425-2.153-24.299-6.732-34.953-13.475-19.597-12.4-40.111-44-56.798-75.156-16.691 31.176-37.201 62.736-56.798 75.16-21.517 13.619-47.557 18.134-72.399 12.553s-46.449-20.804-60.068-42.317c-13.619-21.513-18.134-47.555-12.552-72.396s20.803-46.449 42.316-60.068c11.304-7.156 28.492-11.848 47.768-14.88h-240.268c-8.487 0-16.626-3.372-22.627-9.373s-9.373-14.141-9.373-22.627v-64c0-8.487 3.372-16.626 9.373-22.627s14.141-9.373 22.627-9.373h704c8.486 0 16.627 3.371 22.626 9.373 6.003 6.001 9.374 14.141 9.374 22.627v64c0 8.487-3.371 16.626-9.374 22.627-5.999 6.001-14.14 9.373-22.626 9.373zM603.038 784.365c7.164 4.472 15.812 5.929 24.047 4.052 8.239-1.876 15.398-6.934 19.921-14.070s6.037-15.77 4.22-24.020c-1.818-8.25-6.827-15.446-13.931-20.018-8.401-5.012-39.070-8.676-75.174-9.716 16.38 32.18 32.811 58.345 40.917 63.773zM372.636 750.313c-1.388 6.172-0.914 12.616 1.359 18.519s6.246 11 11.415 14.646c5.169 3.647 11.303 5.679 17.626 5.841s12.553-1.553 17.903-4.931c8.129-5.456 24.568-31.6 40.952-63.796-36.096 1.036-66.764 4.7-75.148 9.7-3.561 2.237-6.642 5.158-9.066 8.595s-4.13 7.319-5.042 11.425z" />
<glyph unicode="&#xe93b;" glyph-name="hot" d="M835.746 245.709c-5.184-14.878-12.962-29.751-20.736-43.388-3.887-7.437-9.071-13.636-11.665-22.315-2.59-7.437-11.665-12.395-16.849-19.836-12.958-19.831-29.807-37.188-47.949-53.303-9.071-7.437-18.142-14.874-28.51-22.31-24.627-18.598-51.84-30.993-81.647-42.15-40.175-14.874-82.944-21.073-127.006-21.073-38.882 0-75.168 11.157-110.159 22.315-24.624 7.437-47.951 19.831-67.391 33.468-29.807 21.073-55.727 47.108-77.759 75.618-28.512 37.188-51.839 76.86-63.503 121.485-9.072 33.472-12.96 65.702-11.664 99.17-2.592 78.097 22.031 147.516 68.687 208.259 7.776 9.917 15.552 18.595 25.92 26.032 5.184 3.719 11.664 6.198 18.144 2.479s6.48-9.917 3.888-16.115c-5.184-14.876-10.368-29.751-11.664-45.867-3.888-50.825 14.256-94.213 57.023-125.202 9.072-7.437 20.736-12.399 33.695-13.636 27.216-3.721 49.247 11.157 57.023 39.667 6.481 23.552 6.481 47.108 0 70.66-5.184 19.833-11.664 39.668-18.144 59.502-16.848 53.304-16.848 106.609 2.592 159.913 6.48 19.834 16.847 37.189 29.806 53.304 20.736 28.512 45.359 53.304 73.873 74.378 5.184 3.719 10.368 6.198 15.552 7.438s10.368 0 14.255-3.719c3.887-3.719 5.184-8.677 2.59-13.636-2.59-4.959-5.184-9.917-7.774-14.876-25.92-45.866-23.33-92.972-2.594-140.079 11.665-28.512 29.807-53.304 47.953-78.097 7.774-11.156 15.552-22.313 22.033-34.71 1.293-2.479 2.59-4.958 5.184-7.438 11.661-13.636 24.623-12.396 31.1 4.959 9.075 23.553 7.778 48.346-1.293 71.898-3.891 9.917-7.778 21.074-12.962 30.991-2.59 6.198-2.59 12.396 2.594 17.355s10.368 1.239 15.552-1.24c12.958-6.198 23.326-13.636 31.104-23.553 31.1-35.95 51.836-75.618 58.317-122.724 6.481-49.583-1.297-96.692-32.401-138.838-6.477-8.678-12.958-16.115-20.732-22.315-5.184-3.721-5.184-8.678-1.297-13.636 7.774-7.437 16.845-11.157 28.51-8.678 47.953 8.678 81.647 47.108 82.944 94.212 0 8.678 0 18.594 0 27.273 0 6.199 0 12.399 7.774 14.878 6.481 2.479 12.962-1.242 16.849-6.199 6.481-7.437 11.665-16.115 15.552-24.794 12.958-30.989 20.736-63.219 22.029-96.691 2.594-45.867-1.293-92.971-16.845-138.837z" />
<glyph unicode="&#xe93c;" glyph-name="hourglass" d="M760.887 160h49.779v-48c0-26.509-22.285-48-49.779-48h-497.776c-27.492 0-49.778 21.491-49.778 48v48h49.778v115.883l178.493 172.117-178.493 172.118v115.882h-49.778v48c0 26.51 22.286 48 49.778 48h497.776c27.494 0 49.779-21.49 49.779-48v-48h-49.779v-115.882l-178.492-172.118 178.492-172.117v-115.883zM362.667 236.117v-76.117h298.667v76.117l-149.333 144-149.333-144z" />
<glyph unicode="&#xe93d;" glyph-name="icon-eye" d="M511.957 725.333c-188.215 0-350.432-110.369-424.949-269.641-2.289-4.826-2.289-10.47 0-15.386 74.517-159.27 236.736-269.641 424.949-269.641 188.215 0 350.434 110.37 424.951 269.641 2.287 4.826 2.287 10.47 0 15.386-74.517 159.272-236.736 269.641-424.951 269.641zM511.957 256.631c-106.282 0-192.334 85.687-192.334 191.322 0 105.726 86.143 191.325 192.334 191.325 106.283 0 192.337-85.69 192.337-191.325s-86.144-191.322-192.337-191.322zM511.957 325.564c68.002 0 123.127 54.839 123.127 122.483s-55.125 122.479-123.127 122.479c-68.002 0-123.127-54.835-123.127-122.479s55.124-122.483 123.127-122.483z" />
<glyph unicode="&#xe93e;" glyph-name="history-v1" d="M906.871 380.228c-10.411 18.637-27.204 31.987-47.309 37.555l-131.695 36.506v324.386c0 41.176-32.384 74.658-72.166 74.658h-293.484c-39.785 0-72.166-33.482-72.166-74.658v-57.057c-102.9-11.032-183.385-101.254-183.385-210.553s80.503-199.539 183.385-210.556v-139.635c0-41.178 32.381-74.658 72.166-74.658h253.8l147.102-40.772c6.707-1.865 13.517-2.778 20.288-2.778 13.5 0 26.829 3.674 38.835 10.837 18.014 10.769 30.921 28.143 36.305 48.943l56.102 216.631c5.38 20.8 2.611 42.513-7.778 61.15zM803.853 259.055c-23.872-14.268-54.404-5.798-68.194 18.901-13.786 24.717-5.602 56.299 18.274 70.562 23.872 14.268 54.421 5.798 68.19-18.901 13.79-24.717 5.619-56.299-18.27-70.562zM659.337 172.732c-23.876-14.263-54.404-5.798-68.194 18.901-13.786 24.717-5.602 56.299 18.27 70.566 23.876 14.263 54.404 5.794 68.194-18.906 13.786-24.713 5.602-56.299-18.27-70.562zM255.48 449.476c-4.856 11.029-0.136 24.064 10.528 29.073 8.405 3.951 17.999 1.775 24.044-4.71 1.647-1.754 3.039-3.827 4.075-6.182 2.717-6.165 9.611-10.313 17.15-10.313 10.103 0 18.339 7.117 18.339 15.863 0 11.575-20.003 15.829-22.278 16.269-6.164 1.212-11.954 2.948-17.286 5.163-24.502 10.138-39.547 30.161-39.547 54.246 0 25.63 16.471 47.535 39.547 56.020v14.422c0 12.121 9.509 21.958 21.225 21.958s21.225-9.837 21.225-21.958v-14.422c15.248-5.568 27.898-17.039 34.588-32.288 4.856-11.032 0.136-24.049-10.545-29.073-8.405-3.953-17.999-1.774-24.044 4.743-1.647 1.739-3.023 3.812-4.058 6.148-2.717 6.166-9.611 10.312-17.167 10.312-10.103 0-18.321-7.114-18.321-15.863 0-11.559 20.003-15.808 22.278-16.269 6.164-1.212 11.937-2.931 17.269-5.163 24.502-10.116 39.564-30.144 39.564-54.246 0-25.613-16.488-47.535-39.564-56.021v-14.404c0-12.122-9.492-21.956-21.225-21.956s-21.225 9.835-21.225 21.956v14.404c-15.248 5.589-27.881 17.058-34.572 32.29zM332.502 160.853v139.639c102.898 11.012 183.402 101.235 183.402 210.556 0 109.315-80.503 199.538-183.402 210.552v57.056c0 16.952 13.329 30.742 29.715 30.742h61.009v-6.833c0-21.8 17.132-39.525 38.205-39.525h95.040c21.069 0 38.204 17.725 38.204 39.525v6.833h61.009c16.384 0 29.717-13.79 29.717-30.742v-312.618l-35.268 9.771c-20.105 5.568-41.109 2.705-59.127-8.047-18.014-10.769-30.921-28.143-36.301-48.943l-56.102-216.631c-5.385-20.8-2.615-42.53 7.774-61.167 2.176-3.883 4.621-7.518 7.322-10.91h-151.498c-16.386 0-29.698 13.79-29.698 30.741z" />
<glyph unicode="&#xe93f;" glyph-name="history" d="M215.151 853.333c-36.25 0-65.942-30.41-65.942-67.559v-608c0-37.141 29.692-67.55 65.942-67.55h263.757v101.333c0 130.355 103.548 236.442 230.784 236.442h32.964v337.775c0 37.149-29.679 67.559-65.933 67.559h-461.573zM544.841 211.558c0 93.278 73.835 168.883 164.851 168.883s164.851-75.605 164.851-168.883c0-93.257-73.835-168.892-164.851-168.892s-164.851 75.635-164.851 168.892zM684.966 186.227h123.635v50.667h-74.185v75.998h-49.451v-126.665zM325.78 346.688v44.907c-45.148 13.478-77.636 50.381-77.636 93.7h75.443c0-15.612 18.272-28.809 39.914-28.809s39.985 13.197 39.985 28.809c0 16.405-1.745 20.608-47.741 29.645l-0.118 0.021c-21.449 4.22-45.752 8.994-66.272 21.596-18.814 11.567-41.234 34.284-41.234 76.814s32.511 80.31 77.636 93.79v44.839h75.443v-44.839c45.17-13.48 77.708-50.403 77.708-93.79h-75.445c0 15.657-18.319 28.896-39.985 28.896s-39.914-13.238-39.914-28.896c0-15.657 1.745-20.561 47.695-29.577l0.077-0.015c21.482-4.218 45.803-8.994 66.335-21.624 18.816-11.567 41.237-34.307 41.237-76.859s-32.538-80.265-77.708-93.722v-44.907l-75.42 0.021z" />
<glyph unicode="&#xe940;" glyph-name="light-mode" d="M511.953 874.671c21.423 0 38.788-17.367 38.788-38.787v-77.576c0-21.423-17.365-38.787-38.788-38.787s-38.788 17.367-38.788 38.787v77.576c0 21.421 17.365 38.787 38.788 38.787zM513.847 661.337c-118.84 0-215.181-96.339-215.181-215.18 0-118.839 96.34-215.181 215.181-215.181 118.844 0 215.181 96.341 215.181 215.181 0 118.842-96.337 215.18-215.181 215.18zM211.194 748.81c15.146 15.148 39.706 15.148 54.854 0l55.411-55.412c15.148-15.148 15.148-39.707 0-54.855-15.146-15.148-39.706-15.148-54.854 0l-55.411 55.412c-15.148 15.148-15.148 39.707 0 54.855zM85.333 448.051c0 21.423 17.367 38.784 38.787 38.784h77.577c21.422 0 38.787-17.361 38.787-38.784s-17.365-38.788-38.787-38.788h-77.577c-21.421 0-38.787 17.361-38.787 38.788zM321.459 257.476c15.148-15.151 15.148-39.706 0-54.852l-55.411-55.411c-15.148-15.147-39.706-15.147-54.854 0-15.148 15.142-15.148 39.706 0 54.852l55.411 55.411c15.146 15.147 39.706 15.147 54.854 0zM511.953 176.503c21.423 0 38.788-17.365 38.788-38.788v-77.577c0-21.419-17.365-38.784-38.788-38.784s-38.788 17.365-38.788 38.784v77.577c0 21.423 17.365 38.788 38.788 38.788zM702.528 257.476c15.147 15.147 39.706 15.147 54.857 0l55.407-55.411c15.151-15.147 15.151-39.71 0-54.852-15.147-15.147-39.701-15.147-54.852 0l-55.411 55.411c-15.151 15.147-15.151 39.701 0 54.852zM783.501 448.051c0 21.423 17.365 38.784 38.788 38.784h77.577c21.419 0 38.784-17.361 38.784-38.784s-17.365-38.788-38.784-38.788h-77.577c-21.423 0-38.788 17.361-38.788 38.788zM812.791 748.81c15.151-15.148 15.151-39.707 0-54.855l-55.407-55.412c-15.151-15.148-39.71-15.148-54.857 0-15.151 15.148-15.151 39.707 0 54.855l55.411 55.412c15.151 15.148 39.706 15.148 54.852 0z" />
<glyph unicode="&#xe941;" glyph-name="live" d="M451.661 832h-135.321l203.869-203.869c2.88-2.881 5.265-6.071 7.147-9.464h137.638l-213.333 213.333zM783.356 618.667h112.644v128c0 47.128-38.204 85.333-85.333 85.333h-238.327l203.87-203.869c2.88-2.881 5.265-6.071 7.147-9.464zM128 746.667c0 41.608 29.779 76.26 69.186 83.808l211.808-211.808h-280.993v128zM810.667 64h-597.333c-47.129 0-85.333 38.204-85.333 85.333v384h768v-384c0-47.13-38.204-85.333-85.333-85.333zM650.667 301.525c14.221 8.209 14.221 28.74 0 36.949l-192 110.852c-14.221 8.209-32-2.052-32-18.475v-221.705c0-16.422 17.779-26.684 32-18.475l192 110.852z" />
<glyph unicode="&#xe942;" glyph-name="live-chat" d="M929.156 521.749c-8.222 42.818-49.847 80.107-95.407 86.845-20.924 3.251-77.423 7.005-125.867 8.435 0.917-15.22 1.382-30.912 1.417-47.121v-0.079c0-44.829-3.482-85.226-10.487-123.472v-0.333c-5.734-29.841-22.669-58.679-47.693-81.344-24.708-22.383-55.697-37.291-87.322-42.001-28.992-4.493-107.964-9.22-163.726-10.022l-0.25-0.375c0.534-3.285 1.084-6.46 1.667-9.425 8.235-42.82 49.861-80.107 95.407-86.831 27.524-4.288 116.531-9.425 167.859-8.998l58.667-87.804c2.551-3.814 6.089-6.959 10.283-9.139 4.19-2.18 8.9-3.319 13.687-3.319s9.498 1.139 13.692 3.319c4.19 2.18 7.727 5.325 10.283 9.139l65.015 97.229c44.561 7.693 84.838 44.369 92.907 86.387 4.736 25.903 9.186 61.257 9.254 109.525 0.064 48.269-4.655 83.499-9.387 109.385zM659.388 686.91c-8.802 45.786-53.346 85.651-102.025 92.861-29.542 4.602-125.367 10.115-180.164 9.629-54.781 0.487-150.605-5.026-180.145-9.629-48.713-7.209-93.24-47.121-102.026-92.861-5.068-27.692-9.819-65.483-9.819-117.128 0-51.647 4.751-89.42 9.819-117.050 8.635-44.937 51.68-84.173 99.342-92.403l69.484-103.983c2.731-4.079 6.514-7.437 10.996-9.766s9.517-3.55 14.635-3.55c5.118 0 10.153 1.22 14.635 3.55s8.265 5.687 10.996 9.766l62.749 93.897c54.898-0.439 150.036 5.043 179.497 9.63 48.708 7.211 93.222 47.121 102.025 92.86 5.001 27.691 9.835 65.485 9.903 117.114 0.064 51.629-4.834 89.373-9.903 117.065zM405.556 509.107c0.082-3.452-0.567-6.882-1.909-10.091-1.342-3.213-3.35-6.135-5.907-8.606s-5.611-4.437-8.983-5.781c-3.372-1.344-6.996-2.044-10.658-2.052-48.601 0.461-97.197 1.481-145.787 3.063-7.542 0.388-14.679 3.341-20.089 8.307s-8.726 11.614-9.335 18.709c-0.9 14.37 11.119 25.711 26.673 25.381 49.257-1.047 98.525-1.733 147.804-2.057 7.508-0.095 14.675-2.963 19.958-7.994 5.283-5.026 8.257-11.806 8.282-18.88h-0.050zM519.62 598.636c-96.938-0.503-193.879-0.147-290.825 1.068-15.604 0.22-28.608 12.063-28.858 26.435s12.42 25.995 28.090 25.979c97.303-0.199 194.605-0.262 291.908-0.188 3.708 0.020 7.386-0.652 10.816-1.977 3.435-1.326 6.554-3.279 9.178-5.748s4.706-5.402 6.123-8.633c1.417-3.23 2.138-6.693 2.125-10.188-0.085-7.105-3.123-13.895-8.461-18.912-5.342-5.017-12.557-7.859-20.096-7.916v0.079z" />
<glyph unicode="&#xe943;" glyph-name="loading" d="M532.023 675.077c55.113 0 99.793 44.68 99.793 99.795s-44.681 99.795-99.793 99.795c-55.117 0-99.797-44.68-99.797-99.795s44.681-99.795 99.797-99.795zM532.023 21.453c33.067 0 59.87 26.807 59.87 59.874 0 33.062-26.803 59.87-59.87 59.87s-59.87-26.807-59.87-59.87c0-33.067 26.803-59.874 59.87-59.874zM286.809 583.506c49.607 0 89.822 40.215 89.822 89.822s-40.215 89.822-89.822 89.822c-49.607 0-89.822-40.215-89.822-89.822s40.215-89.822 89.822-89.822zM777.237 133.035c27.558 0 49.894 22.34 49.894 49.899s-22.336 49.899-49.894 49.899c-27.558 0-49.899-22.34-49.899-49.899s22.34-49.899 49.899-49.899zM185.233 348.267c44.081 0 79.817 35.733 79.817 79.817 0 44.079-35.735 79.817-79.817 79.817s-79.817-35.738-79.817-79.817c0-44.083 35.735-79.817 79.817-79.817zM878.78 388.224c22.033 0 39.893 17.86 39.893 39.889 0 22.033-17.86 39.893-39.893 39.893s-39.893-17.86-39.893-39.893c0-22.029 17.86-39.889 39.893-39.889zM237.43 232.247c-27.296-27.294-27.296-71.462 0-98.756 27.264-27.298 71.495-27.298 98.759 0 27.296 27.294 27.296 71.462 0 98.756-27.264 27.328-71.462 27.588-98.759 0zM777.203 643.409c16.525 0 29.918 13.395 29.918 29.919s-13.393 29.919-29.918 29.919c-16.525 0-29.918-13.395-29.918-29.919s13.393-29.919 29.918-29.919z" />
<glyph unicode="&#xe944;" glyph-name="logout" d="M734.72 64l167.275 91.238c22.626 12.343 36.672 35.823 36.672 61.312v462.901c0 25.488-14.046 48.966-36.672 61.31l-167.275 91.238v-768zM684.723 710.644h-147.725v-166.346l97.724-96.298-97.724-96.299v-166.345h147.725v525.287zM564.011 448l-134.562 132.603v-70.182h-308.56c-19.636 0-35.555-15.689-35.555-35.038v-54.767c0-19.349 15.919-35.038 35.555-35.038h308.56v-70.182l134.562 132.604z" />
<glyph unicode="&#xe945;" glyph-name="menu" d="M170.667 238.933c0 16.495 13.893 29.867 31.030 29.867h620.605c17.139 0 31.031-13.372 31.031-29.867v-59.733c0-16.495-13.892-29.867-31.031-29.867h-620.605c-17.137 0-31.030 13.372-31.030 29.867v59.733zM170.667 477.867c0 16.495 13.893 29.867 31.030 29.867h620.605c17.139 0 31.031-13.372 31.031-29.867v-59.733c0-16.495-13.892-29.867-31.031-29.867h-620.605c-17.137 0-31.030 13.372-31.030 29.867v59.733zM170.667 716.8c0 16.495 13.893 29.867 31.030 29.867h372.362c17.139 0 31.031-13.372 31.031-29.867v-59.733c0-16.495-13.892-29.867-31.031-29.867h-372.362c-17.137 0-31.030 13.372-31.030 29.867v59.733z" />
<glyph unicode="&#xe946;" glyph-name="minus" d="M810.667 490.667v-106.667h-597.333v106.667h597.333z" />
<glyph unicode="&#xe947;" glyph-name="money" d="M85.333 448c0-235.644 191.025-426.667 426.667-426.667 235.644 0 426.667 191.023 426.667 426.667 0 235.642-191.023 426.667-426.667 426.667-235.642 0-426.667-191.025-426.667-426.667zM470.72 650.323v53.681h82.569v-53.862c58.116-9.575 102.601-60.145 102.601-120.934h-82.569c0 22.069-17.954 40.022-40.021 40.022h-43.614c-22.042 0-39.974-17.934-39.974-39.975s17.933-39.974 39.974-39.974h44.634c67.571 0 122.543-54.972 122.543-122.539 0-61.12-44.983-111.927-103.578-121.071v-53.679h-82.569v53.572c-58.186 8.794-102.929 59.136-102.929 119.74h82.569c0-21.248 17.284-38.537 38.532-38.537h45.431c22.042 0 39.974 17.933 39.974 39.974s-17.933 39.974-39.974 39.974h-44.634c-67.572 0-122.543 54.972-122.543 122.543 0 61.114 44.98 111.919 103.578 121.064z" />
<glyph unicode="&#xe948;" glyph-name="more" d="M512 352c52.928 0 96 43.072 96 96s-43.072 96-96 96c-52.928 0-96-43.072-96-96s43.072-96 96-96zM832 352c52.928 0 96 43.072 96 96s-43.072 96-96 96c-52.928 0-96-43.072-96-96s43.072-96 96-96zM192 352c52.928 0 96 43.072 96 96s-43.072 96-96 96c-52.928 0-96-43.072-96-96s43.072-96 96-96z" />
<glyph unicode="&#xe949;" glyph-name="mute" d="M731.409 804.448c0 10.421-6.033 20.294-15.36 24.682-9.877 4.936-20.847 3.291-29.077-3.291l-243.025-193.614 287.462-287.402v459.625zM887.979 110.839l-713.17 713.025c-10.698 10.695-28.088 10.695-38.786 0s-10.697-28.082 0-38.778l172.587-172.607h-16.074c-17.007 0-31.818-7.679-41.693-19.745-8.229-9.324-13.166-21.939-13.166-35.103v-219.392c0-30.165 24.687-54.848 54.859-54.848h127.273l267.162-213.359c4.941-3.84 10.974-6.033 17.007-6.033 3.84 0 8.23 1.097 12.070 2.743 9.327 4.386 15.36 14.259 15.36 24.683v98.342l117.726-117.705c5.376-5.376 12.399-8.064 19.422-8.064s14.046 2.688 19.422 8.009c10.697 10.748 10.697 28.083 0 38.831z" />
<glyph unicode="&#xe94a;" glyph-name="nap-tien1" d="M714.667 549.334c-111.748 0-202.667-90.915-202.667-202.667 0-111.748 90.918-202.667 202.671-202.667h151.996c0-55.885-45.444-101.333-101.333-101.333h-557.332c-55.888 0-101.334 45.449-101.334 101.333v405.334c0 37.288 20.596 69.391 50.665 86.971v115.695c0 55.887 45.446 101.334 101.334 101.334h456.001c55.889 0 101.333-45.446 101.333-101.334v-115.695c30.071-17.579 50.667-49.683 50.667-86.971h-152zM333.385 752c-5.603-38.686-36.034-69.116-74.72-74.719l0.002-26.615h456.072l-0.017 26.611c-38.707 5.585-69.171 36.017-74.778 74.723h-306.559zM292.445 481.779h42.222v-118.221h109.779v-42.223h-109.779v-109.777h-42.222v109.777h-118.223v42.223h118.223v118.221zM562.667 346.667c0 83.819 68.181 152 152 152h202.667v-303.996h-202.667c-83.814 0-152 68.181-152 151.996z" />
<glyph unicode="&#xe94b;" glyph-name="news" d="M836.262 789.333h-580.267c-47.036 0-85.333-38.298-85.333-85.333v-512c0-9.421-7.646-17.067-17.067-17.067s-17.067 7.646-17.067 17.067v477.423c-20.582-15.599-34.133-40.073-34.133-67.823v-409.6c0-47.036 38.298-85.333 85.333-85.333h648.533c47.036 0 85.333 38.298 85.333 85.333v512c0 47.036-38.298 85.333-85.333 85.333zM785.097 686.933c36.284 0 65.57-20.378 68.164-47.411 0.887-9.387-5.973-17.715-15.36-18.603-9.626-1.126-17.715 6.007-18.603 15.36-0.683 6.895-13.995 16.486-34.167 16.486-20.582 0.034-34.202-10.24-34.202-17.033 0-4.198 4.471-11.981 34.406-16.862l5.052-0.853c41.779-6.861 62.942-23.859 62.942-50.551 0-28.706-30.003-51.2-68.301-51.2-36.284 0-65.57 20.378-68.164 47.412-0.887 9.387 5.973 17.715 15.36 18.602 9.455 1.195 17.715-6.007 18.603-15.36 0.683-6.895 13.995-16.521 34.167-16.521 20.582 0 34.202 10.274 34.202 17.067 0 5.12-5.939 12.219-34.304 16.896l-5.018 0.853c-41.847 6.793-63.078 23.791-63.078 50.517 0 28.706 30.003 51.2 68.301 51.2zM836.262 413.867h-238.933c-9.421 0-17.067 7.646-17.067 17.067s7.646 17.067 17.067 17.067h238.933c9.421 0 17.067-7.646 17.067-17.067s-7.646-17.067-17.067-17.067zM853.329 328.533c0-9.421-7.646-17.067-17.067-17.067h-238.933c-9.421 0-17.067 7.646-17.067 17.067s7.646 17.067 17.067 17.067h238.933c9.421 0 17.067-7.646 17.067-17.067zM409.595 669.867c0 9.421 7.646 17.067 17.068 17.067h68.266c9.421 0 17.067-7.646 17.067-17.067s-7.646-17.067-17.067-17.067h-51.2v-34.133h34.133c9.421 0 17.067-7.646 17.067-17.067s-7.646-17.066-17.067-17.066h-34.133v-34.133h51.2c9.421 0 17.067-7.646 17.067-17.067s-7.646-17.067-17.067-17.067h-68.266c-9.422 0-17.068 7.646-17.068 17.067v136.533zM238.929 669.867c0 7.339 4.71 13.858 11.674 16.179 7.031 2.321 14.643-0.068 19.046-5.939l71.68-95.573v85.333c0 9.421 7.646 17.067 17.067 17.067s17.067-7.646 17.067-17.067v-136.533c0-7.339-4.71-13.859-11.674-16.18-1.775-0.614-3.584-0.887-5.393-0.887-5.257 0-10.377 2.458-13.653 6.827l-71.68 95.573v-85.333c0-9.421-7.646-17.067-17.067-17.067s-17.067 7.646-17.067 17.067v136.533zM546.129 226.133c0-9.421-7.646-17.067-17.067-17.067h-273.067c-4.335 0-8.192 1.741-11.23 4.437-1.707 1.502-3.106 3.345-4.096 5.393-0.034 0.068-0.102 0.137-0.137 0.205-1.024 2.15-1.604 4.506-1.604 7.031v204.8c0 9.421 7.646 17.067 17.067 17.067h273.067c9.421 0 17.067-7.646 17.067-17.067v-204.8zM563.708 529.203l-34.133 136.533c-2.287 9.148 3.277 18.398 12.425 20.685 9.079 2.287 18.398-3.243 20.685-12.425l19.934-79.667 15.599 46.796c4.642 13.926 27.75 13.926 32.358 0l15.599-46.796 19.934 79.667c2.253 9.182 11.469 14.746 20.685 12.425 9.148-2.287 14.711-11.537 12.425-20.685l-34.133-136.533c-1.843-7.373-8.329-12.629-15.906-12.902h-0.649c-7.305 0-13.858 4.676-16.179 11.674l-17.954 53.794-17.954-53.828c-2.389-7.202-9.011-12.493-16.828-11.639-7.578 0.273-14.063 5.53-15.906 12.902zM853.329 209.067h-256c-9.421 0-17.067 7.646-17.067 17.067s7.646 17.067 17.067 17.067h256c9.421 0 17.067-7.646 17.067-17.067s-7.646-17.067-17.067-17.067z" />
<glyph unicode="&#xe94c;" glyph-name="next" d="M567.966 447.872l-217.355 223.472c-5.985 6.138-9.277 14.346-9.277 23.097 0 8.756 3.292 16.958 9.277 23.107l19.046 19.571c5.975 6.158 13.964 9.548 22.476 9.548s16.49-3.39 22.47-9.548l258.797-266.062c6.003-6.165 9.289-14.409 9.267-23.168 0.021-8.802-3.26-17.033-9.267-23.206l-258.556-265.801c-5.98-6.161-13.958-9.549-22.475-9.549-8.512 0-16.491 3.388-22.476 9.549l-19.041 19.571c-12.39 12.736-12.39 33.472 0 46.208l217.114 223.211z" />
<glyph unicode="&#xe94d;" glyph-name="note" d="M844.894 746.731c96.418-111.872 96.418-485.589 0-597.461-57.937-66.069-182.31-106.603-333.018-106.603-150.71 0-275.085 40.533-333.019 106.603-96.421 111.061-96.421 485.589 0 597.461 57.934 66.069 182.309 106.603 333.019 106.603 150.707 0 275.081-40.533 333.018-106.603zM560.636 627.455c0 30.499-21.841 55.212-48.759 55.212-26.923 0-48.764-24.713-48.764-55.212s21.824-55.212 48.764-55.212c26.935 0 48.759 24.73 48.759 55.212zM597.205 213.333l0.004 82.829h-36.57v248.446h-134.098v-82.81h36.571v-165.636h-36.571v-82.829h170.664z" />
<glyph unicode="&#xe94e;" glyph-name="other" d="M477.090 657.455c0-34.522-10.236-68.268-29.419-96.974-19.179-28.701-46.438-51.075-78.331-64.285s-66.989-16.67-100.847-9.933c-33.858 6.733-64.96 23.36-89.37 47.77-24.41 24.408-41.035 55.509-47.769 89.367-6.735 33.862-3.279 68.955 9.932 100.849s35.583 59.154 64.287 78.334c28.704 19.179 62.451 29.416 96.972 29.416 46.293 0 90.69-18.39 123.421-51.123 32.734-32.733 51.124-77.13 51.124-123.422zM721.455 482.91c34.522 0 68.267 10.236 96.973 29.419 28.702 19.179 51.076 46.438 64.286 78.331s16.67 66.988 9.933 100.847c-6.737 33.858-23.36 64.96-47.77 89.37s-55.509 41.035-89.37 47.769c-33.86 6.735-68.954 3.278-100.847-9.932s-59.153-35.583-78.332-64.287c-19.183-28.704-29.419-62.451-29.419-96.972 0-46.293 18.389-90.69 51.123-123.421 32.734-32.734 77.129-51.124 123.422-51.124zM302.545 413.090c-34.522 0-68.268-10.236-96.972-29.419-28.704-19.179-51.076-46.438-64.287-78.332s-16.667-66.987-9.932-100.847c6.735-33.86 23.359-64.96 47.769-89.37s55.512-41.033 89.37-47.77c33.859-6.737 68.954-3.277 100.847 9.933s59.152 35.584 78.331 64.286c19.183 28.706 29.419 62.451 29.419 96.973 0 46.293-18.389 90.688-51.124 123.422-32.731 32.734-77.128 51.123-123.421 51.123zM861.090 273.455h-104.725v104.725c0 9.259-3.682 18.142-10.227 24.687s-15.424 10.223-24.683 10.223c-9.259 0-18.138-3.678-24.687-10.223-6.545-6.545-10.223-15.428-10.223-24.687v-104.725h-104.725c-9.259 0-18.142-3.678-24.687-10.227-6.545-6.545-10.223-15.424-10.223-24.683s3.678-18.138 10.223-24.683c6.545-6.545 15.428-10.227 24.687-10.227h104.725v-104.725c0-9.259 3.678-18.138 10.223-24.683 6.549-6.549 15.428-10.227 24.687-10.227s18.138 3.678 24.683 10.227c6.545 6.545 10.227 15.424 10.227 24.683v104.725h104.725c9.259 0 18.138 3.682 24.683 10.227 6.549 6.545 10.227 15.424 10.227 24.683s-3.678 18.138-10.227 24.683c-6.545 6.549-15.424 10.227-24.683 10.227z" />
<glyph unicode="&#xe94f;" glyph-name="phap-ly" d="M871.923 184.768l-171.371 144.951 70.225 70.199c4.655-4.655 10.97-7.27 17.557-7.27 6.583 0 12.898 2.615 17.557 7.27l35.11 35.098c4.655 4.655 7.27 10.97 7.27 17.553 0 6.579-2.615 12.894-7.27 17.549l-175.565 175.514c-4.655 4.655-10.974 7.269-17.557 7.269s-12.898-2.615-17.557-7.269l-35.11-35.1c-2.308-2.305-4.134-5.041-5.385-8.053-1.246-3.011-1.89-6.239-1.89-9.498s0.644-6.487 1.89-9.499c1.25-3.011 3.076-5.748 5.385-8.052l-210.676-210.604c-2.306 2.308-5.043 4.134-8.055 5.385-3.013 1.246-6.241 1.89-9.502 1.89s-6.49-0.644-9.502-1.89c-3.012-1.25-5.75-3.076-8.055-5.385l-35.113-35.098c-4.656-4.655-7.272-10.97-7.272-17.549 0-6.583 2.615-12.898 7.272-17.553l175.564-175.501c4.659-4.655 10.974-7.27 17.557-7.27s12.902 2.615 17.557 7.27l35.11 35.098c4.659 4.655 7.275 10.97 7.275 17.549 0 6.583-2.615 12.898-7.275 17.553l70.225 70.199 144.998-171.311c6.127-7.223 13.683-13.103 22.199-17.259 8.512-4.16 17.792-6.507 27.26-6.895 9.468-0.393 18.91 1.186 27.738 4.629 8.823 3.443 16.841 8.678 23.539 15.377 6.699 6.694 11.938 14.707 15.381 23.531s5.022 18.261 4.629 27.725c-0.388 9.463-2.735 18.743-6.895 27.251-4.16 8.512-10.022 16.073-17.25 22.195zM599.744 832h-397.258c-19.737-0.058-38.649-7.921-52.606-21.872s-21.822-32.857-21.88-52.588v-546.037c0.058-19.729 7.924-38.635 21.88-52.587s32.869-21.815 52.606-21.871h199.374l-122.653 122.611c-6.926 6.899-12.421 15.1-16.17 24.132-3.75 9.028-5.679 18.709-5.679 28.484s1.93 19.456 5.679 28.484c3.749 9.028 9.244 17.229 16.17 24.132l20.215 20.352h-47.279c-6.585 0-12.9 2.615-17.556 7.27s-7.272 10.97-7.272 17.549c0 6.583 2.616 12.898 7.272 17.553s10.972 7.27 17.556 7.27h49.657c6.585 0 12.9-2.615 17.556-7.27s7.272-10.97 7.272-17.553l-0.017-0.085c13.254 8.405 28.783 12.51 44.461 11.75l65.242 65.22c-3.238-1.562-6.78-2.389-10.371-2.423h-173.8c-6.585 0-12.9 2.615-17.556 7.27s-7.272 10.965-7.272 17.549c0 6.583 2.616 12.894 7.272 17.549s10.972 7.271 17.556 7.271h173.8c6.586 0 12.901-2.616 17.556-7.271 4.659-4.655 7.275-10.965 7.275-17.549-0.038-3.593-0.866-7.13-2.428-10.368l90.069 90.040c-0.525 10.452 1.126 20.899 4.843 30.682s9.425 18.688 16.759 26.156l35.255 34.996c10.129 10.131 22.959 17.133 36.958 20.17 14.003 3.037 28.582 1.98 41.997-3.044v59.567c-0.055 19.73-7.923 38.636-21.879 52.588s-32.866 21.815-52.604 21.872zM500.429 583.802h-248.286c-6.585 0-12.9 2.615-17.556 7.27s-7.272 10.967-7.272 17.55c0 6.583 2.616 12.896 7.272 17.551s10.972 7.27 17.556 7.27h248.286c6.583 0 12.902-2.615 17.557-7.27s7.27-10.968 7.27-17.551c0-6.583-2.615-12.896-7.27-17.55s-10.974-7.27-17.557-7.27zM550.084 683.081h-297.941c-6.585 0-12.9 2.615-17.556 7.27s-7.272 10.967-7.272 17.55c0 6.583 2.616 12.896 7.272 17.551s10.972 7.27 17.556 7.27h297.941c6.588 0 12.902-2.615 17.557-7.27 4.659-4.655 7.275-10.967 7.275-17.551s-2.615-12.896-7.275-17.55c-4.655-4.655-10.97-7.27-17.557-7.27z" />
<glyph unicode="&#xe950;" glyph-name="plus" d="M568 746.667h-93.333v-261.333h-261.333v-93.333h261.333v-242.667h93.333v242.667h242.667v93.333h-242.667v261.333z" />
<glyph unicode="&#xe951;" glyph-name="poll-vertical-circle" d="M512 874.667c-235.648 0-426.667-191.019-426.667-426.667s191.019-426.667 426.667-426.667c235.648 0 426.667 191.019 426.667 426.667s-191.019 426.667-426.667 426.667zM373.333 277.333c0-17.664-14.336-32-32-32s-32 14.336-32 32v213.333c0 17.664 14.336 32 32 32s32-14.336 32-32v-213.333zM544 277.333c0-17.664-14.336-32-32-32s-32 14.336-32 32v341.333c0 17.664 14.336 32 32 32s32-14.336 32-32v-341.333zM714.667 277.333c0-17.664-14.336-32-32-32s-32 14.336-32 32v128c0 17.664 14.336 32 32 32s32-14.336 32-32v-128z" />
<glyph unicode="&#xe952;" glyph-name="prev" d="M456.034 447.872l217.357 223.472c5.982 6.138 9.276 14.346 9.276 23.097 0 8.756-3.294 16.958-9.276 23.107l-19.046 19.571c-5.978 6.158-13.965 9.548-22.477 9.548s-16.491-3.39-22.468-9.548l-258.798-266.062c-6.004-6.165-9.292-14.409-9.268-23.168-0.023-8.802 3.259-17.033 9.268-23.206l258.555-265.801c5.982-6.161 13.961-9.549 22.477-9.549 8.512 0 16.491 3.388 22.473 9.549l19.042 19.571c12.39 12.736 12.39 33.472 0 46.208l-217.114 223.211z" />
<glyph unicode="&#xe953;" glyph-name="promotion" d="M891.524 603.501c-2.991 2.998-6.827 4.497-11.507 4.497h-220.002c30.997 0 57.417 10.91 79.253 32.748 21.833 21.835 32.751 48.252 32.751 79.254s-10.918 57.418-32.751 79.253c-21.837 21.83-48.256 32.748-79.253 32.748-35.665 0-63.671-12.832-84.002-38.497l-64.009-82.501-63.991 82.501c-20.339 25.665-48.337 38.497-84.006 38.497-31.004 0-57.424-10.911-79.252-32.748-21.83-21.835-32.75-48.252-32.75-79.253s10.912-57.425 32.75-79.254c21.833-21.83 48.249-32.748 79.252-32.748h-220.009c-4.671 0-8.501-1.499-11.501-4.497-2.996-3.004-4.497-6.839-4.497-11.503v-160.011c0-4.663 1.495-8.499 4.497-11.494 2.998-2.995 6.835-4.493 11.501-4.493h48.004v-304.009c0-13.338 4.667-24.666 14.002-33.993 9.327-9.335 20.662-13.999 34-13.999h544.013c13.342 0 24.67 4.663 34.005 13.999 9.327 9.331 14.003 20.663 14.003 33.993v304.009h47.979c4.676 0 8.512 1.498 11.507 4.493s4.489 6.831 4.489 11.494v160.011c0.009 4.663-1.481 8.499-4.476 11.503zM625.519 752.502c8.666 10.329 20.16 15.496 34.496 15.496 13.342 0 24.674-4.662 34.005-13.996 9.327-9.329 13.99-20.666 13.99-34s-4.676-24.671-13.99-34c-9.335-9.335-20.663-13.997-34.005-13.997h-97.007l62.511 80.497zM364.002 672.003c-13.335 0-24.662 4.664-34.011 13.996-9.329 9.329-13.999 20.666-13.999 34s4.664 24.665 13.999 34c9.335 9.334 20.671 13.996 34.006 13.996 14.34 0 25.837-5.159 34.505-15.496l63.003-80.499-97.502 0.002zM592.017 153.997c0-8.333-3.012-14.75-9.007-19.255-6.003-4.501-13.675-6.75-22.993-6.75h-96.009c-9.335 0-16.998 2.249-23.002 6.75-6.003 4.506-9.007 10.923-9.007 19.255v454.001h160.017v-454.001z" />
<glyph unicode="&#xe954;" glyph-name="qr-code" d="M128 797.091v-296.726c0-19.281 15.63-34.91 34.909-34.91h296.726c19.281 0 34.91 15.629 34.91 34.91v296.726c0 19.279-15.629 34.909-34.91 34.909h-296.726c-19.279 0-34.909-15.63-34.909-34.909zM215.273 709.818c0 19.28 15.63 34.909 34.909 34.909h122.182c19.28 0 34.909-15.63 34.909-34.909v-122.182c0-19.28-15.629-34.909-34.909-34.909h-122.182c-19.28 0-34.909 15.629-34.909 34.909v122.182zM128 395.635v-296.725c0-19.281 15.63-34.91 34.909-34.91h296.726c19.281 0 34.91 15.629 34.91 34.91v296.725c0 19.281-15.629 34.91-34.91 34.91h-296.726c-19.279 0-34.909-15.629-34.909-34.91zM215.273 308.365c0 19.281 15.63 34.91 34.909 34.91h122.182c19.28 0 34.909-15.629 34.909-34.91v-122.185c0-19.277-15.629-34.906-34.909-34.906h-122.182c-19.28 0-34.909 15.629-34.909 34.906v122.185zM529.455 797.091v-296.726c0-19.281 15.629-34.91 34.91-34.91h296.725c19.281 0 34.91 15.629 34.91 34.91v296.726c0 19.279-15.629 34.909-34.91 34.909h-296.725c-19.281 0-34.91-15.63-34.91-34.909zM616.725 709.818c0 19.28 15.629 34.909 34.91 34.909h122.185c19.277 0 34.906-15.63 34.906-34.909v-122.182c0-19.28-15.629-34.909-34.906-34.909h-122.185c-19.281 0-34.91 15.629-34.91 34.909v122.182zM546.91 430.545h314.18v-69.82h-314.18v69.82zM756.365 238.545h-104.73v69.82h104.73v-69.82zM651.635 98.91h-104.725v69.815h104.725v-69.815zM861.090 98.91h-104.725v69.815h104.725v-69.815z" />
<glyph unicode="&#xe955;" glyph-name="quan-ly-ngan-hang" d="M850.999 535.905h-677.999c-24.854 0-45.001-20.116-45.001-44.931v-382.042c0-24.815 20.147-44.932 45.001-44.932h677.999c24.853 0 45.001 20.117 45.001 44.932v382.042c0 24.815-20.147 44.931-45.001 44.931zM351.759 161.498h-153.652v44.932h153.652v-44.932zM359.655 344.060c0-20.646-16.822-37.444-37.499-37.444h-83.555c-20.677 0-37.5 16.798-37.5 37.444v65.502c0 20.646 16.823 37.44 37.5 37.44h83.553c20.677 0 37.5-16.794 37.5-37.44l0.001-65.502zM640.196 161.498h-224.34v44.932h224.34v-44.932zM825.894 161.498h-121.604v44.932h121.604v-44.932zM732.096 722.852l-96.132 95.988c-17.574 17.547-46.067 17.547-63.642 0l-238.362-238.002h264.034l134.101 142.014zM729.331 580.838l70.366 74.516-35.767 35.712-104.090-110.228h69.491zM850.999 580.838c9.664 0 18.974-1.548 27.708-4.377l-47.177 47.106-40.35-42.73 59.819 0.001z" />
<glyph unicode="&#xe956;" glyph-name="question" d="M920.384 702.836c-16.051 72.467-86.298 138.85-158.959 152.95-44.267 8.85-167.761 19.783-249.442 18.883-81.681 0.9-205.175-10.033-249.44-18.883-72.664-14.1-142.911-80.483-158.96-152.95-9.133-44-18.116-103.867-18.249-185.583 0.133-81.719 9.116-141.568 18.249-185.566 16.049-72.469 86.296-138.85 158.96-152.951 23.899-4.783 70.897-10.167 121.946-13.969 5.783-9.084 12.049-18.748 18.832-28.996 27.084-41.020 47.815-69.602 63.512-89.519 26.133-33.152 64.183-33.152 90.317 0 15.697 19.917 36.412 48.499 63.514 89.519 6.784 10.266 13.030 19.913 18.833 28.996 51.046 3.802 98.044 9.186 121.958 13.969 72.666 14.101 142.912 80.482 158.963 152.951 9.131 43.998 18.116 103.846 18.249 185.566-0.132 81.716-9.118 141.566-18.249 185.567l-0.034 0.017zM559.1 269.5c-1.801-10.15-10.999-19.349-21.15-21.15-6.153-1.015-14.532-1.984-25.984-1.997-11.43 0-19.814 0.964-25.98 1.997-10.15 1.801-19.349 10.999-21.15 21.15-1.020 6.153-1.984 14.537-2.001 25.984 0 11.435 0.969 19.819 2.001 25.984 1.801 10.15 10.999 19.349 21.15 21.15 6.148 1.015 14.532 1.984 25.98 2.001 11.435 0 19.819-0.969 25.984-2.001 10.15-1.801 19.349-10.999 21.15-21.15 1.015-6.148 1.98-14.532 1.997-25.984 0-11.435-0.964-19.814-1.997-25.984zM660.561 542.485c-12.868-18.201-32.149-34.816-60.681-52.266-36.117-22.268-41.899-31.415-41.899-49.335v-7.083c0-25.399-20.668-46.067-46.067-46.067-25.395 0-46.063 20.668-46.063 46.067v16.418c0 21.133 5.282 39.066 16.149 54.818 10.534 15.266 26.317 28.832 49.732 42.748 43.149 25.384 51.046 39.633 51.046 58.55 0 23.767-20.25 39.133-51.563 39.133-34.334 0-56.683-15.6-66.432-46.383-6.434-20.3-25.233-33.934-46.765-33.934-1.2 0-2.4 0.050-3.6 0.134-15.2 1.1-28.815 8.983-37.349 21.633-8.45 12.517-10.666 27.9-6.083 42.217 10.499 32.733 30.632 59.967 58.217 78.767 27.93 19.033 63.211 29.083 101.995 29.083 38.78 0 77.662-12.85 105.263-36.183 28.399-24.017 44.049-57.117 44.049-93.233 0-24.8-6.519-46.1-19.951-65.084z" />
<glyph unicode="&#xe957;" glyph-name="radio" d="M512 86.976c-199.389 0-361.026 161.634-361.026 361.024s161.637 361.026 361.026 361.026c199.39 0 361.024-161.637 361.024-361.026s-161.634-361.024-361.024-361.024zM512 21.333c235.639 0 426.667 191.027 426.667 426.667 0 235.642-191.027 426.667-426.667 426.667-235.642 0-426.667-191.025-426.667-426.667 0-235.639 191.025-426.667 426.667-426.667z" />
<glyph unicode="&#xe958;" glyph-name="reload" d="M338.583 396.783c11.838 13.658 2.195 34.982-15.821 34.982h-53.939c-0.352 5.367-0.548 10.778-0.548 16.235 0 135.172 109.334 245.14 243.725 245.14 64.585 0 123.371-25.404 167.027-66.789l76.058 89.497c-66.581 61.262-152.265 94.818-243.085 94.818-96.313 0-186.86-37.725-254.963-106.222-68.102-68.499-105.609-159.572-105.609-256.445 0-5.431 0.135-10.842 0.369-16.23h-45.433c-18.016 0-27.661-21.329-15.821-34.987l124.020-143.083 124.021 143.083zM933.457 465.771l-124.019 143.084-124.019-143.084c-11.836-13.658-2.193-34.982 15.821-34.982h53.875c-8.811-127.172-114.479-227.93-243.115-227.93-56.149 0-107.922 19.209-149.178 51.426l-76.065-89.506c63.723-51.469 142.342-79.445 225.247-79.445 96.311 0 186.859 37.722 254.963 106.223 64.051 64.427 101.030 148.821 105.199 239.228h45.47c18.018 0.004 27.661 21.329 15.821 34.987z" />
<glyph unicode="&#xe959;" glyph-name="rut-tien" d="M714.667 549.334c-111.748 0-202.667-90.915-202.667-202.667 0-111.748 90.918-202.667 202.671-202.667h151.996c0-55.885-45.444-101.333-101.333-101.333h-557.332c-55.888 0-101.334 45.449-101.334 101.333v405.334c0 37.288 20.596 69.391 50.665 86.971v115.695c0 55.887 45.446 101.334 101.334 101.334h456.001c55.889 0 101.333-45.446 101.333-101.334v-115.695c30.071-17.579 50.667-49.683 50.667-86.971h-152zM333.385 752c-5.603-38.686-36.034-69.116-74.72-74.719l0.002-26.615h456.072l-0.017 26.611c-38.707 5.585-69.171 36.017-74.778 74.723h-306.559zM562.667 346.667c0 83.819 68.181 152 152 152h202.667v-303.996h-202.667c-83.814 0-152 68.181-152 151.996zM444.446 329.779v50.667h-270.224v-50.667h270.224z" />
</font>
</defs>
</svg>
